Ссылка на приватное зеркало всего за 1$. Внимание количество ограничено!!!

OK

1+1

iTunes

мы

OK

1

WEB-DLRip

Джокер

Пифагор

Ведьмак / The Witcher сериал

Лицензия

ПШазам

ОК

Оно 2

iTunes

30
pack

Вам бонус

ВАЖНО

!!Акция!!

Alien_RageХит недели

RePack

Resident Evil 21

ИГРА 18+

pack

RePack

jed

!!Акция!!

Alien_Rage

RePack

fifa19

RePack

Assassins Creed: Odyssey

RePack

NEED FOR SPEED™ PAYBACK

4 сезон

9 сезон

Бесстыжие 9 сезон

Все сериалы

все сериалы на PB.wtf

RePack

FAR CRY 5
  

Конг: Остров черепа в 3D / Kong: Skull Island in 3D (Джордан Вот-Робертс) [2017 г., Фантастика, Фэнтези, Боевик, Приключения, BDRip 1080p, Дубляж BD CEE] Анаглиф (Дюбуа) pb.wtf

Конг: Остров черепа в 3D через торрент pb.wtf

Размер: 7.26 GB | Добавлен: 2 года 3 мес. назад | Торрент скачан:66 раз
Скачать  

25-09-2017 15:02 Конг: Остров черепа в 3D Скачать торрент  

Конг: Остров черепа в 3D / Kong: Skull Island in 3D
Год выпуска: 2017
Страна: США
Жанр: Фантастика, Фэнтези, Боевик, Приключения
Продолжительность: 01:58:23
Перевод: Дубляж BD CEE
Субтитры: Русские, украинские, английские

Режиссер: Джордан Вот-Робертс

Бюджет: $185 000 000
Премьера в мире: 28 февраля 2017 (9 марта 2017)

В ролях: Том Хиддлстон, Сэмюэл Л. Джексон, Джон Гудман, Бри Ларсон, Цзин Тянь, Тоби Кеббелл, Джон Ортис, Кори Хоукинс, Джейсон Митчелл, Ши Уигхэм, Томас Манн, Терри Нотари

Описание: На неизвестный остров в Тихом океане попадает команда ученых, военных и искателей приключений. Они вторгаются во владения могучего Конга и тем самым развязывают сражение между человеком и природой. Очень скоро исследовательская миссия превращается в игру на выживание, ее участники вынуждены буквально прорубать себе путь к спасению.

Доп. информация: Формат 3D: Анаглиф (Дюбуа)



Качество: BDRip 1080p
Формат: MKV
Видео кодек: H.264
Аудио кодек: AC3
Видео: AVC, 1920x1080 (16:9), 7502 kbps, 23,976 fps, 0.151 bpp
Аудио#1: Русский / AC3 / 48 KHz / 5.1 ch / 640 Kbps (Дубляж - BD 3D Eur)
Аудио#2: Украинский / AC3 / 48 KHz / 2 ch / 192 Kbps (Дубляж - iTunes)
Аудио#3: Английский / AC3 / 48 KHz / 5.1 ch / 640 Kbps (Original - BD 3D Eur)
скриншот   скриншот   скриншот   скриншот   скриншот  

x264 [info]: frame I:1895 Avg QP:12.24 size:214165
x264 [info]: frame P:45785 Avg QP:15.73 size: 71412
x264 [info]: frame B:122634 Avg QP:18.48 size: 24345
x264 [info]: consecutive B-frames: 4.0% 3.6% 12.1% 41.7% 38.6%


Общее
Уникальный идентификатор : 223061314411822307760689433352425678261 (0xA7D00BE681D6AD37BBAD1C0E0C63A5B5)
Полное имя : E:\Kong.SkullIsland(2017)3D(Anaglyph_Dubois).mkv
Формат : Matroska
Версия формата : Version 4 / Version 2
Размер файла : 7,26 Гбайт
Продолжительность : 1 ч. 58 м.
Общий поток : 8784 Кбит/сек
Название фильма : Конг: Остров черепа / Kong: Skull Island (2017) 3D (Anaglyph_Dubois)
Дата кодирования : UTC 2017-09-06 14:38:06
Программа кодирования : mkvmerge v9.1.0 ('Little Earthquakes') 64bit
Библиотека кодирования : libebml v1.3.3 + libmatroska v1.4.4

Видео
Идентификатор : 1
Формат : AVC
Формат/Информация : Advanced Video Codec
Профиль формата : High@L4.1
MultiView_Count : 2
MultiView_Layout : Anaglyph (cyan/red)
Параметр CABAC формата : Да
Параметр ReFrames формата : 4 кадра
Идентификатор кодека : V_MPEG4/ISO/AVC
Продолжительность : 1 ч. 58 м.
Битрейт : 7502 Кбит/сек
Ширина : 1920 пикселей
Высота : 1080 пикселей
Соотношение сторон : 16:9
Режим частоты кадров : Постоянный
Частота кадров : 23,976 кадра/сек
Цветовое пространство : YUV
Субдискретизация насыщенности : 4:2:0
Битовая глубина : 8 бит
Тип развёртки : Прогрессивная
Бит/(Пиксели*Кадры) : 0.151
Размер потока : 6,20 Гбайт (85%)
Заголовок : slaventi-69 ( R.G. HD-Films ) 3Д (Anaglyph_Dubois)
Библиотека кодирования : x264 core 130 r2273 b3065e6
Настройки программы : cabac=1 / ref=4 / deblock=1:-1:-1 / analyse=0x3:0x113 / me=umh / subme=9 / psy=1 / psy_rd=1.00:0.00 / mixed_ref=1 / me_range=24 / chroma_me=1 / trellis=2 / 8x8dct=1 / cqm=0 / deadzone=21,11 / fast_pskip=1 / chroma_qp_offset=-2 / threads=10 / lookahead_threads=1 / sliced_threads=0 / nr=0 / decimate=1 / interlaced=0 / bluray_compat=0 / constrained_intra=0 / bframes=4 / b_pyramid=2 / b_adapt=2 / b_bias=0 / direct=3 / weightb=1 / open_gop=0 / weightp=2 / keyint=250 / keyint_min=23 / scenecut=40 / intra_refresh=0 / rc_lookahead=50 / rc=crf / mbtree=1 / crf=18.0 / qcomp=0.60 / qpmin=0 / qpmax=69 / qpstep=4 / ip_ratio=1.40 / aq=1:1.00
Язык : English
Default : Да
Forced : Нет

Аудио #1
Идентификатор : 2
Формат : AC-3
Формат/Информация : Audio Coding 3
Параметр Endianness формата : Big
Идентификатор кодека : A_AC3
Продолжительность : 1 ч. 58 м.
Вид битрейта : Постоянный
Битрейт : 448 Кбит/сек
Каналы : 6 каналов
Расположение каналов : Front: L C R, Side: L R, LFE
Частота : 48,0 КГц
Частота кадров : 31,250 кадров/сек (1536 spf)
Битовая глубина : 16 бит
Метод сжатия : С потерями
Размер потока : 379 Мбайт (5%)
Заголовок : Дубляж - BD 3D
Язык : Russian
ServiceKind/String : Complete Main
Default : Да
Forced : Нет

Аудио #2
Идентификатор : 3
Формат : AC-3
Формат/Информация : Audio Coding 3
Параметр Endianness формата : Big
Идентификатор кодека : A_AC3
Продолжительность : 1 ч. 58 м.
Вид битрейта : Постоянный
Битрейт : 192 Кбит/сек
Каналы : 2 канала
Расположение каналов : Front: L R
Частота : 48,0 КГц
Частота кадров : 31,250 кадров/сек (1536 spf)
Битовая глубина : 16 бит
Метод сжатия : С потерями
Размер потока : 163 Мбайт (2%)
Заголовок : Дубляж - iTunes
Язык : Ukrainian
ServiceKind/String : Complete Main
Default : Нет
Forced : Нет

Аудио #3
Идентификатор : 4
Формат : AC-3
Формат/Информация : Audio Coding 3
Параметр Endianness формата : Big
Идентификатор кодека : A_AC3
Продолжительность : 1 ч. 58 м.
Вид битрейта : Постоянный
Битрейт : 640 Кбит/сек
Каналы : 6 каналов
Расположение каналов : Front: L C R, Side: L R, LFE
Частота : 48,0 КГц
Частота кадров : 31,250 кадров/сек (1536 spf)
Битовая глубина : 16 бит
Метод сжатия : С потерями
Размер потока : 542 Мбайт (7%)
Заголовок : Original - BD 3D
Язык : English
ServiceKind/String : Complete Main
Default : Нет
Forced : Нет

Текст #1
Идентификатор : 5
Формат : UTF-8
Идентификатор кодека : S_TEXT/UTF8
Идентификатор кодека/Информация : UTF-8 Plain Text
Продолжительность : 1 ч. 57 м.
Битрейт : 3 бит/сек
ElementCount : 65
Размер потока : 2,98 Кбайт (0%)
Заголовок : Форсированные (BD 3D edited)
Язык : Russian
Default : Да
Forced : Нет

Текст #2
Идентификатор : 6
Формат : UTF-8
Идентификатор кодека : S_TEXT/UTF8
Идентификатор кодека/Информация : UTF-8 Plain Text
Продолжительность : 1 ч. 57 м.
Битрейт : 68 бит/сек
ElementCount : 1265
Размер потока : 59,3 Кбайт (0%)
Заголовок : Полные (BD 3D)
Язык : Russian
Default : Нет
Forced : Нет

Текст #3
Идентификатор : 7
Формат : UTF-8
Идентификатор кодека : S_TEXT/UTF8
Идентификатор кодека/Информация : UTF-8 Plain Text
Продолжительность : 1 ч. 57 м.
Битрейт : 3 бит/сек
ElementCount : 62
Размер потока : 2,75 Кбайт (0%)
Заголовок : Форсированные
Язык : Ukrainian
Default : Нет
Forced : Нет

Текст #4
Идентификатор : 8
Формат : UTF-8
Идентификатор кодека : S_TEXT/UTF8
Идентификатор кодека/Информация : UTF-8 Plain Text
Продолжительность : 1 ч. 55 м.
Битрейт : 52 бит/сек
ElementCount : 1249
Размер потока : 44,0 Кбайт (0%)
Заголовок : Full
Язык : English
Default : Нет
Forced : Нет

Текст #5
Идентификатор : 9
Формат : UTF-8
Идентификатор кодека : S_TEXT/UTF8
Идентификатор кодека/Информация : UTF-8 Plain Text
Продолжительность : 1 ч. 58 м.
Битрейт : 58 бит/сек
ElementCount : 1530
Размер потока : 50,9 Кбайт (0%)
Заголовок : SDH (BD 3D)
Язык : English
Default : Нет
Forced : Нет

Меню
00:00:00.000 : :1
00:08:54.743 : :2
00:19:51.774 : :3
00:30:01.133 : :4
00:40:00.106 : :5
00:50:13.260 : :6
01:00:49.729 : :7
01:10:29.600 : :8
01:18:05.890 : :9
01:30:12.657 : :10
01:39:09.026 : :11
01:47:05.836 : :12

pb.wtf



Скачать Конг: Остров черепа в 3D через торрент http://i96.fastpic.ru/big/2017/0625/31/f9a82ec70fe927428c27a2dbfd4d4a31.png Скачать фильм Конг: Остров черепа в 3D через торрент бесплантно в хорошем качестве Описание: На неизвестный остров в Тихом океане попадает команда ученых, военных и искателей приключений. Они вторгаются во владения ... 10 10 5
Info! Золотая раздача, скачанное не засчитывается.
Торрент: Зарегистрирован [2017-09-25 15:02] · скачан: 66 раз
Статус: √ проверено
Размер: 7.26 GB
Как cкачать? Как скачать Конг: Остров черепа в 3D через торрент | qTorrent

28-11-2019 20:33  

Отключить всю рекламу на сайте

24-01-2018 19:26 Конг: Остров черепа в 3D Скачать торрент  

Раздайте кто-нибудь пожалуйста!!!!!!!!pb.wtf



    Дорогой пользователь! Огромная просьба, поблагодарите релизера, оцените раздачу и оставьте свои комментарий, если Вы скачали Конг: Остров черепа в 3D через торрент бесплатно! Внесите свою лепту в развитие PiratBit!
    Комментировать посты могут только пользователи прошедшие не сложную регистрацию
    Показать сообщения:    

    Конг: Остров черепа в 3D через торрент
    Скачать бесплатно Конг: Остров черепа в 3D
    Конг: Остров черепа в 3D скачать торрент
    Конг: Остров черепа в 3D смотреть онлайн
    Cкачать фильм Конг: Остров черепа в 3D бесплатно
    Конг: Остров черепа в 3D скачать торрент в хорошем качестве
    Конг: Остров черепа в 3D смотреть онлайн бесплатно в хорошем качестве


    Вы не можете начинать темы
    Вы не можете отвечать на сообщения
    Вы не можете редактировать свои сообщения
    Вы не можете удалять свои сообщения
    Вы не можете голосовать в опросах
    Вы не можете прикреплять файлы к сообщениям
    Вы можете скачивать файлы