2 сезон

iTunes

MVO

1

2 сезон

iTunes

iTunes

1 сезон

RePack

30

Новинка

ВАЖНО

ИГРА 18+

pack

RePack

MK11
pack

Легкие деньги

RePack

jed

RePack

fifa19

RePack

RDR2

RePack

NEED FOR SPEED™ PAYBACK

4 сезон

9 сезон

Бесстыжие 9 сезон

Все сериалы

все сериалы на PB.wtf

RePack

FAR CRY 5

Anonymous, доброе утро, мы не успеваем собрать деньги на оплату серверов за декабрь и январь, помогите нам пожалуйста в это трудное время. В качестве благодарности мы отключим Вам всю рекламу на сайте (укажите свой ник в строку Ваше имя)!

×
  
Magnet ссылка

Мумия / The Mummy (Алекс Куртцман / Alex Kurtzman) [2017, США, фэнтези, боевик, триллер, BDRip-AVC] Dub [Лицензия] pb.wtf

Мумия через торрент pb.wtf

Раздают: 1 [ 0 KB/s ]
Размер: 746 MB | Добавлен: 3 года 3 мес. назад | Торрент скачан:98 раз
Скачать  

25-09-2017 16:07 Мумия Скачать торрент  

Мумия
The Mummy

«Отныне миром правят боги и монстры»


Страна: США
Жанр: фэнтези, боевик, триллер, приключения

Год выпуска: 2017
Продолжительность: 01:50:05

Перевод: Профессиональный (полное дублирование) [Blu-ray EUR]
Субтитры: русские (форсированные)
Оригинальная аудиодорожка: нет

Режиссер: Алекс Куртцман / Alex Kurtzman

В ролях: Том Круз, Рассел Кроу, Аннабелль Уоллис, София Бутелла, Джейк Джонсон, Кортни Б. Вэнс, Марван Кензари, Саймон Атертон, Стивен Томпсон, Джеймс Арама, Мэтт Уилкас, Зом Капила

Описание:
Посреди безжалостной пустыни в величественном саркофаге погребена дочь египетского фараона, но настанет день, и она явится в наш мир вернуть себе то, что принадлежит ей по праву. Отныне миром правят боги и монстры.



Релиз:

Автор рипа: stalkerok | Моя группа

Сэмпл

Качество видео: BDRip-AVC [The Mummy (2017) Blu-ray Disc [EUR] - Highvoltage]
Формат видео: MKV
Видео кодек: AVC
Аудио кодек: AAC
Видео: 882 Кбит/сек, 768*320 (2,40:1), в 23,976 (24000/1001) кадра/сек, AVC
Аудио: русский, 64,0 Кбит/сек, 48,0 КГц / 24,0 КГц, 2 канала, AAC (HE-AAC / LC)
Навигация по главам: есть

x264 [info]: frame I:1278 Avg QP:15.48 size: 36153
x264 [info]: frame P:32025 Avg QP:19.40 size: 9990
x264 [info]: frame B:125074 Avg QP:21.67 size: 2889

Общее
Уникальный идентификатор : 196335104411808131602302832597823088012 (0x93B4C403165E18BBAFB6B0A9D8AF658C)
Полное имя : M:\!Rips2017\The Mummy\The.Mummy.2017.BDRip-AVC.RUS..stalkerok.new-team.mkv
Формат : Matroska
Версия формата : Version 4 / Version 2
Размер файла : 746 Мбайт
Продолжительность : 1 ч. 50 м.
Общий поток : 947 Кбит/сек
Название фильма : The Mummy (2017) (Rip by stalkerok)
Дата кодирования : UTC 2017-09-25 15:57:09
Программа кодирования : mkvmerge v8.6.1 ('Flying') 64bit
Библиотека кодирования : libebml v1.3.3 + libmatroska v1.4.4

Видео
Идентификатор : 1
Формат : AVC
Формат/Информация : Advanced Video Codec
Профиль формата : High@L4.1
Параметр CABAC формата : Да
Параметр ReFrames формата : 16 кадров
Идентификатор кодека : V_MPEG4/ISO/AVC
Продолжительность : 1 ч. 50 м.
Битрейт : 882 Кбит/сек
Ширина : 768 пикселей
Высота : 320 пикселей
Соотношение сторон : 2,40:1
Режим частоты кадров : Постоянный
Частота кадров : 23,976 (24000/1001) кадра/сек
Цветовое пространство : YUV
Субдискретизация насыщенности : 4:2:0
Битовая глубина : 8 бит
Тип развёртки : Прогрессивная
Бит/(Пиксели*Кадры) : 0.150
Размер потока : 694 Мбайт (93%)
Заголовок : The Mummy (2017) (Rip by stalkerok)
Библиотека кодирования : x264 core 150 r2833kMod df79067
Настройки программы : cabac=1 / ref=16 / deblock=1:-3:-2 / analyse=0x3:0x133 / me=umh / subme=11 / psy=1 / fade_compensate=0.00 / psy_rd=1.00:0.00 / mixed_ref=1 / me_range=32 / chroma_me=1 / trellis=2 / 8x8dct=1 / cqm=0 / deadzone=21,11 / fast_pskip=0 / chroma_qp_offset=-2 / threads=10 / lookahead_threads=2 / sliced_threads=0 / nr=0 / decimate=0 / interlaced=0 / bluray_compat=0 / constrained_intra=0 / bframes=16 / b_pyramid=2 / b_adapt=2 / b_bias=0 / direct=3 / weightb=1 / open_gop=0 / weightp=2 / keyint=240 / keyint_min=23 / scenecut=40 / intra_refresh=0 / rc_lookahead=60 / rc=2pass / mbtree=0 / bitrate=882 / ratetol=1.0 / qcomp=0.65 / qpmin=0 / qpmax=69 / qpstep=4 / cplxblur=20.0 / qblur=0.5 / vbv_maxrate=50000 / vbv_bufsize=62500 / nal_hrd=none / filler=0 / ip_ratio=1.40 / pb_ratio=1.30 / aq=3:0.95
Default : Да
Forced : Нет

Аудио
Идентификатор : 2
Формат : AAC
Формат/Информация : Advanced Audio Codec
Профиль формата : HE-AAC / LC
Идентификатор кодека : A_AAC
Продолжительность : 1 ч. 50 м.
Битрейт : 64,0 Кбит/сек
Каналы : 2 канала
Расположение каналов : Front: L R
Частота : 48,0 КГц / 24,0 КГц
Частота кадров : 23,438 кадра/сек (1024 spf)
Метод сжатия : С потерями
Задержка видео : 31 мс.
Размер потока : 50,4 Мбайт (7%)
Язык : Russian
Default : Да
Forced : Нет

Текст
Идентификатор : 3
Формат : UTF-8
Идентификатор кодека : S_TEXT/UTF8
Идентификатор кодека/Информация : UTF-8 Plain Text
Продолжительность : 1 ч. 39 м.
Битрейт : 2 бит/сек
Count of elements : 43
Размер потока : 1,72 Кбайт (0%)
Заголовок : Forced (Blu-ray EUR)
Язык : Russian
Default : Да
Forced : Нет

Меню
00:00:00.000 : en:Chapter 1
00:08:18.706 : en:Chapter 2
00:13:18.923 : en:Chapter 3
00:19:31.461 : en:Chapter 4
00:24:40.145 : en:Chapter 5
00:28:54.107 : en:Chapter 6
00:35:41.389 : en:Chapter 7
00:39:36.040 : en:Chapter 8
00:47:00.067 : en:Chapter 9
00:50:57.637 : en:Chapter 10
00:56:49.739 : en:Chapter 11
01:00:43.848 : en:Chapter 12
01:08:58.008 : en:Chapter 13
01:16:03.850 : en:Chapter 14
01:19:38.440 : en:Chapter 15
01:23:16.408 : en:Chapter 16
01:26:26.848 : en:Chapter 17
01:33:34.942 : en:Chapter 18
01:37:02.983 : en:Chapter 19
01:39:47.982 : en:Chapter 20
скриншот   скриншот   скриншот   скриншот   скриншот   скриншот  
pb.wtf



Скачать Мумия через торрент http://i6.imageban.ru/out/2017/09/18/2ff75c0c358795c5946784cc1680714d.png Скачать фильм Мумия через торрент бесплантно в хорошем качестве Описание:Посреди безжалостной пустыни в величественном саркофаге погребена дочь египетского фараона, но настанет день, и она явится в наш ... 10 10 3
Info! Золотая раздача, скачанное не засчитывается.
Торрент: Зарегистрирован [2017-09-25 16:07] · скачан: 98 раз
Статус: √ проверено
Размер: 746 MB
Как cкачать? Как скачать Мумия через торрент | UTorrent

% Раздел Тема Автор DL S | L
Ultra HD (UHD: 2K, 4K, 8K) — видео сверхвысокой чёткости [ 205.8 GB ] Мумия: Трилогия / The Mummy: Trilogy [1999 2001 2008 UHD BDRemux 2160] [Dub + MVO + DVO + AVO] Russian Mafia Скачать
1 | 0
Фильмы (HD 720p, 1080p) (48-60 fps) [ 7.03 GB ] Мумия возвращается / The Mummy Returns [2001 BDRip 720p ] slaventi-69 Скачать
1 | 0
Фильмы (HD 720p, 1080p) (48-60 fps) [ 4.88 GB ] Мумия: Гробница Императора Драконов / The Mummy: Tomb of the Dragon Emperor [2008 BDRip 720p ] slaventi-69 Скачать
1 | 0
Фильмы (HD 720p, 1080p) (48-60 fps) [ 9.17 GB ] Мумия / The Mummy [2017 BDRip 720p / 60 FPS Dub AVO Original] Tiberiumsun69 Скачать
5 | 0
Фильмы (Blu-ray, BD-Remux, HDDVD) [ 36.73 GB ] Мумия / The Mummy [2017 BDRemux 1080p] DUB [] + 3xAVO sheker187 Скачать
1 | 0
National Geographic [ 1.18 GB ] National Geographic: Тайна гималайских мумий / Mystery of the Himalayan Mummies [2016 документальный DVB] VO Armstrong Скачать
1 | 0
Фильмы [HD 720p, 1080p] (Хороший звук DUB, MVO) [ 5.96 GB ] Мумия возвращается / The Mummy Returns [2001 HDDVDRip 1080p HEVC ] Мичман37 Скачать
1 | 0

28-11-2019 20:33  

Отключить всю рекламу на сайте

    Дорогой пользователь! Огромная просьба, поблагодарите релизера, оцените раздачу и оставьте свои комментарий, если Вы скачали Мумия через торрент бесплатно! Внесите свою лепту в развитие PiratBit!
    Комментировать посты могут только пользователи прошедшие не сложную регистрацию
    Показать сообщения:    

    Мумия через торрент
    Скачать бесплатно Мумия
    Мумия скачать торрент
    Мумия смотреть онлайн
    Cкачать фильм Мумия бесплатно
    Мумия скачать торрент в хорошем качестве
    Мумия смотреть онлайн бесплатно в хорошем качестве


    Вы не можете начинать темы
    Вы не можете отвечать на сообщения
    Вы не можете редактировать свои сообщения
    Вы не можете удалять свои сообщения
    Вы не можете голосовать в опросах
    Вы не можете прикреплять файлы к сообщениям
    Вы можете скачивать файлы