2 сезон

iTunes

MVO

1

2 сезон

iTunes

iTunes

1 сезон

RePack

30

Новинка

ВАЖНО

ИГРА 18+

pack

RePack

MK11
pack

Легкие деньги

RePack

jed

RePack

fifa19

RePack

RDR2

RePack

NEED FOR SPEED™ PAYBACK

4 сезон

9 сезон

Бесстыжие 9 сезон

Все сериалы

все сериалы на PB.wtf

RePack

FAR CRY 5

Anonymous, доброе утро, мы не успеваем собрать деньги на оплату серверов за декабрь и январь, помогите нам пожалуйста в это трудное время. В качестве благодарности мы отключим Вам всю рекламу на сайте (укажите свой ник в строку Ваше имя)!

×
  
Magnet ссылка

Мумия / The Mummy (Алекс Куртцман) [2017 г., Ужасы, фэнтези, боевик, приключения, HDRip, Дубляж "BD RUS"] pb.wtf

Мумия через торрент pb.wtf

Размер: 732 MB | Добавлен: 3 года 3 мес. назад | Торрент скачан:74 раза
Скачать  

25-09-2017 18:29 Мумия Скачать торрент  

Мумия / The Mummy
Год выпуска: 2017
Страна: США / Universal Pictures, Dark Universe, Dentsu
Жанр: Ужасы, фэнтези, боевик, приключения
Продолжительность: 01:50:05
Перевод: Дубляж (BD RUS)
Субтитры: Русские форсированные - вшитые

Режиссер: Алекс Куртцман

rating

В ролях: Том Круз, Расселл Кроу, Аннабелль Уоллис, София Бутелла, Джейк Джонсон, Кортни Б. Вэнс, Марван Кензари, Саймон Атертон

Описание: События происходят в наши дни, герой Тома Круза по имени Ник Мортон – боец спецподразделения на Ближнем Востоке, который, преследуя боевиков, попадает в странный бункер, где обнаруживает мумию ассирийской царицы. Вместе с ученой-антропологом по имени Дженни Хэлси (Аннабелль Уоллис) и группой солдат ее тело самолетом перевозят в Лондон. В процессе транспортировки случается инцидент, и самолет терпит крушение, после которого выжить удается только Нику и...мумии. Как гласит история, в свое время судьба несправедливо обошлась с ней и теперь, спустя тысячи лет, богиня просыпается ото сна. Пролежав все это время под тоннами песка, она наконец-то обретает свободу, и теперь ей ничто не помешает обрушить всю свою ярость на человечество.

Качество: HDRip
Формат: AVI
Видео кодек: XviD
Аудио кодек: MP3
Видео: 640x272 (2.35:1), 23.976 fps, XviD build 50 ~791 kbps avg, 0.19 bit/pixel
Аудио: 48 kHz, MPEG Layer 3, 2 ch, ~128.00 kbps avg
скриншот   скриншот   скриншот   скриншот  

Общее
Полное имя : F:\ФИЛЬМЫ\Мумия.2017.D.HDRip.avi
Формат : AVI
Формат/Информация : Audio Video Interleave
Размер файла : 732 Мбайт
Продолжительность : 1 ч. 50 м.
Общий поток : 929 Кбит/сек
Программа кодирования : VirtualDubMod 1.5.10.3 | www.virtualdub-fr.org || (build 2550/release)
Библиотека кодирования : VirtualDubMod build 2550/release

Видео
Идентификатор : 0
Формат : MPEG-4 Visual
Профиль формата : Advanced Simple@L5
Настройки формата : BVOP1
Параметр BVOP формата : 1
Параметр QPel формата : Нет
Параметр GMC формата : Без точки перехода
Параметр матрицы формата : Default (MPEG)
Идентификатор кодека : XVID
Идентификатор кодека/Подсказка : XviD
Продолжительность : 1 ч. 50 м.
Битрейт : 792 Кбит/сек
Ширина : 640 пикселей
Высота : 272 пикселя
Соотношение сторон : 2,35:1
Частота кадров : 23,976 (24000/1001) кадра/сек
Цветовое пространство : YUV
Субдискретизация насыщенности : 4:2:0
Битовая глубина : 8 бит
Тип развёртки : Прогрессивная
Метод сжатия : С потерями
Бит/(Пиксели*Кадры) : 0.190
Размер потока : 624 Мбайт (85%)
Библиотека кодирования : XviD 1.2.1 (UTC 2008-12-04)

Аудио
Идентификатор : 1
Формат : MPEG Audio
Версия формата : Version 1
Профиль формата : Layer 3
Настройки формата : Joint stereo
Режим : Joint stereo
Идентификатор кодека : 55
Идентификатор кодека/Подсказка : MP3
Продолжительность : 1 ч. 50 м.
Вид битрейта : Постоянный
Битрейт : 128 Кбит/сек
Каналы : 2 канала
Частота : 48,0 КГц
Метод сжатия : С потерями
Размер потока : 101 Мбайт (14%)
Выравнивание : Соединение по промежуткам
Продолжительность промежутка : 42 мс. (1,00 видеокадр)
Время предзагрузки промежутка : 504 мс.
Библиотека кодирования : LAME3.99r
Настройки программы : -m j -V 4 -q 2 -lowpass 17 -b 128

pb.wtf



Скачать Мумия через торрент http://pic1.kartinco.top/images/11/9eiq6.jpg Скачать фильм Мумия через торрент бесплантно в хорошем качестве Описание: События происходят в наши дни, герой Тома Круза по имени Ник Мортон – боец спецподразделения на Ближнем Востоке, который, ... 8 10 3
Торрент: Зарегистрирован [2017-09-25 18:29] · скачан: 74 раз
Статус: √ проверено
Размер: 732 MB
Как cкачать? Как скачать Мумия через торрент | UTorrent

% Раздел Тема Автор DL S | L
Ultra HD (UHD: 2K, 4K, 8K) — видео сверхвысокой чёткости [ 205.8 GB ] Мумия: Трилогия / The Mummy: Trilogy [1999 2001 2008 UHD BDRemux 2160] [Dub + MVO + DVO + AVO] Russian Mafia Скачать
2 | 0
Фильмы (HD 720p, 1080p) (48-60 fps) [ 7.03 GB ] Мумия возвращается / The Mummy Returns [2001 BDRip 720p ] slaventi-69 Скачать
1 | 0
Фильмы (HD 720p, 1080p) (48-60 fps) [ 4.88 GB ] Мумия: Гробница Императора Драконов / The Mummy: Tomb of the Dragon Emperor [2008 BDRip 720p ] slaventi-69 Скачать
1 | 0
Фильмы (HD 720p, 1080p) (48-60 fps) [ 9.17 GB ] Мумия / The Mummy [2017 BDRip 720p / 60 FPS Dub AVO Original] Tiberiumsun69 Скачать
5 | 1
Фильмы (Blu-ray, BD-Remux, HDDVD) [ 36.73 GB ] Мумия / The Mummy [2017 BDRemux 1080p] DUB [] + 3xAVO sheker187 Скачать
1 | 0
National Geographic [ 1.18 GB ] National Geographic: Тайна гималайских мумий / Mystery of the Himalayan Mummies [2016 документальный DVB] VO Armstrong Скачать
1 | 0
Фильмы [HD 720p, 1080p] (Хороший звук DUB, MVO) [ 5.96 GB ] Мумия возвращается / The Mummy Returns [2001 HDDVDRip 1080p HEVC ] Мичман37 Скачать
1 | 0

28-11-2019 20:33  

Отключить всю рекламу на сайте

21-11-2017 08:14 Мумия Скачать торрент  

разрекламленный недодуманный пук...pb.wtf



    Дорогой пользователь! Огромная просьба, поблагодарите релизера, оцените раздачу и оставьте свои комментарий, если Вы скачали Мумия через торрент бесплатно! Внесите свою лепту в развитие PiratBit!
    Комментировать посты могут только пользователи прошедшие не сложную регистрацию
    Показать сообщения:    

    Мумия через торрент
    Скачать бесплатно Мумия
    Мумия скачать торрент
    Мумия смотреть онлайн
    Cкачать фильм Мумия бесплатно
    Мумия скачать торрент в хорошем качестве
    Мумия смотреть онлайн бесплатно в хорошем качестве


    Вы не можете начинать темы
    Вы не можете отвечать на сообщения
    Вы не можете редактировать свои сообщения
    Вы не можете удалять свои сообщения
    Вы не можете голосовать в опросах
    Вы не можете прикреплять файлы к сообщениям
    Вы можете скачивать файлы