новый адрес пиратбит piratbit
Мега распродажа FORZA HORIZON 4 ULTIMATE+ВСЕ DLC+ОНЛАЙН всего за 499р. 349 руб. (супер цена). Внимание количество ограничено!!!

iTunes

1+1

iTunes

мы

iTunes

1

iTunes

Чернобыль

iTunes

Ральф против интернета

Лицензия

ПШазам

Лицензия

Игра престолов

Лицензия

30
pack

ВАЖНО

!!Акция!!

Alien_RageХит недели

RePack

Resident Evil 21

ИГРА 18+

pack

RePack

Metro:Exodus

!!Акция!!

Alien_Rage

RePack

fifa19

RePack

Assassins Creed: Odyssey

RePack

NEED FOR SPEED™ PAYBACK

3 сезон

9 сезон

Бесстыжие 9 сезон

Все сериалы

все сериалы на PB.wtf

RePack

FAR CRY 5
Ребята, катастрофически не хватает 1900р. для оплаты серверов за Октябрь (всвязи с блокировками трафик упал в 3 раза), 1-2р., выручайте.
  

Грань будущего / Edge of Tomorrow (Даг Лайман ) [2014, фантастика, боевик, приключения, BDRip 1080p от potroks] DUB + AVO (x4) pb.wtf

Грань будущего через торрент pb.wtf

Раздают: 1 [ 0 KB/s ]
Размер: 12.25 GB | Добавлен: 2 года 1 мес. назад | Торрент скачан:235 раз
Скачать  

25-09-2017 19:35 Грань будущего Скачать торрент  

Грань будущего / Edge of Tomorrow

Год выпуска: 2014
Страна: США, Австралия / Warner Bros. Pictures...
Жанр: фантастика, боевик, приключения
Продолжительность: 01:53:29
Перевод: Дубляж [Blu-ray CEE], Авторский [одноголосый]
Субтитры: русские (форс.), русские (x3), английские (Full), английские (SDH), английские (SDH-Colored)
Навигация по главам: есть

Режиссер: Даг Лайман
В ролях:

Том Круз (Cage), Эмили Блант (Rita), Билл Пэкстон (Master Sergeant Farell), Брендан Глисон (General Brigham), Ноа Тейлор (Dr. Carter), Джонас Армстронг (Skinner), Тони Вэй (Kimmel), Кик Гарри (Griff), Франц Драмех (Ford), Драгомир Мрсич (Kuntz), Шарлотта Райли (Nance), Масаёси Ханэда (Takeda)

Описание: В недалёком будущем раса инопланетян вторгается на Землю. Никакая армия в мире не может противостоять им. Майор Уильям Кейдж умирает в бою, но случается невозможное - он оказывается во временной петле. Раз за разом он попадает в один и тот же бой, сражается и умирает... снова и снова. И каждое повторяющееся сражение приближает его к разгадке того, как победить врага.



Качество: BDRip 1080p
Формат: MKV
Видео: AVC, 1920x800 (2.40:1), 11611 kbps, 23,976 fps
Аудио №1: AC3 / 5.1 / 48 kHz / 640 kbps | DUB - Blu-ray CEE
Аудио №2: AC3 / 5.1 / 48 kHz / 640 kbps | Д.Есарев
Аудио №3: AC3 / 5.1 / 48 kHz / 640 kbps | Ю.Сербин
Аудио №4: AC3 / 5.1 / 48 kHz / 640 kbps | В.Горчаков
Аудио №5: AC3 / 5.1 / 48 kHz / 640 kbps | Л.Володарский
Аудио №6: AC3 / 5.1 / 48 kHz / 640 kbps | ENG
General
Unique ID : 189375410889396471708409532052144987248 (0x8E7860A0F91447EBB57F19DA092D1C70)
Complete name : D:\Gran.Buduschego.2014.5xRus.Eng.BDRip.1080p.-HELLYWOOD.mkv
Format : Matroska
Format version : Version 4 / Version 2
File size : 12.2 GiB
Duration : 1 h 53 min
Overall bit rate : 15.4 Mb/s
Movie name : Edge of Tomorrow (2014)
Encoded date : UTC 2017-09-17 07:39:20
Writing application : mkvmerge v5.9.0 ('On The Loose') built on Dec 15 2012 16:39:58
Writing library : libebml v1.3.0 + libmatroska v1.4.0

Video
ID : 1
Format : AVC
Format/Info : Advanced Video Codec
Format profile : High@L4.1
Format settings, CABAC : Yes
Format settings, ReFrames : 5 frames
Codec ID : V_MPEG4/ISO/AVC
Duration : 1 h 53 min
Bit rate : 11.6 Mb/s
Width : 1 920 pixels
Height : 800 pixels
Display aspect ratio : 2.40:1
Frame rate mode : Constant
Frame rate : 23.976 (24000/1001) FPS
Color space : YUV
Chroma subsampling : 4:2:0
Bit depth : 8 bits
Scan type : Progressive
Bits/(Pixel*Frame) : 0.315
Stream size : 8.96 GiB (73%)
Title : potroks
Writing library : x264 core 152 r2851M ba24899
Encoding settings : cabac=1 / ref=5 / deblock=1:-2:-2 / analyse=0x3:0x112 / me=umh / subme=11 / psy=1 / psy_rd=1.05:0.10 / mixed_ref=1 / me_range=48 / chroma_me=1 / trellis=2 / 8x8dct=1 / cqm=0 / deadzone=22,11 / fast_pskip=0 / chroma_qp_offset=-3 / threads=9 / lookahead_threads=2 / sliced_threads=0 / nr=0 / decimate=0 / interlaced=0 / bluray_compat=0 / constrained_intra=0 / bframes=11 / b_pyramid=2 / b_adapt=2 / b_bias=0 / direct=3 / weightb=1 / open_gop=0 / weightp=2 / keyint=240 / keyint_min=23 / scenecut=40 / intra_refresh=0 / rc_lookahead=0 / rc=2pass / mbtree=0 / bitrate=11611 / ratetol=1.0 / qcomp=0.70 / qpmin=0 / qpmax=69 / qpstep=4 / cplxblur=20.0 / qblur=0.5 / vbv_maxrate=62500 / vbv_bufsize=44642 / nal_hrd=none / filler=0 / ip_ratio=1.40 / pb_ratio=1.30 / aq=1:0.70
Language : English
Default : Yes
Forced : No

Audio #1
ID : 2
Format : AC-3
Format/Info : Audio Coding 3
Mode extension : CM (complete main)
Format settings, Endianness : Big
Codec ID : A_AC3
Duration : 1 h 53 min
Bit rate mode : Constant
Bit rate : 640 kb/s
Channel(s) : 6 channels
Channel positions : Front: L C R, Side: L R, LFE
Sampling rate : 48.0 kHz
Frame rate : 31.250 FPS (1536 spf)
Compression mode : Lossy
Stream size : 520 MiB (4%)
Title : Dub | DD 5.1 @ 640 kbps - Blu-ray CEE
Language : Russian
Default : Yes
Forced : No

Audio #2
ID : 3
Format : AC-3
Format/Info : Audio Coding 3
Mode extension : CM (complete main)
Format settings, Endianness : Big
Codec ID : A_AC3
Duration : 1 h 53 min
Bit rate mode : Constant
Bit rate : 640 kb/s
Channel(s) : 6 channels
Channel positions : Front: L C R, Side: L R, LFE
Sampling rate : 48.0 kHz
Frame rate : 31.250 FPS (1536 spf)
Compression mode : Lossy
Stream size : 520 MiB (4%)
Title : AVO | DD 5.1 @ 640 kbps - D.Yesarev
Language : Russian
Default : No
Forced : No

Audio #3
ID : 4
Format : AC-3
Format/Info : Audio Coding 3
Mode extension : CM (complete main)
Format settings, Endianness : Big
Codec ID : A_AC3
Duration : 1 h 53 min
Bit rate mode : Constant
Bit rate : 640 kb/s
Channel(s) : 6 channels
Channel positions : Front: L C R, Side: L R, LFE
Sampling rate : 48.0 kHz
Frame rate : 31.250 FPS (1536 spf)
Compression mode : Lossy
Stream size : 520 MiB (4%)
Title : AVO | DD 5.1 @ 640 kbps - Yu.Serbin
Language : Russian
Default : No
Forced : No

Audio #4
ID : 5
Format : AC-3
Format/Info : Audio Coding 3
Mode extension : CM (complete main)
Format settings, Endianness : Big
Codec ID : A_AC3
Duration : 1 h 53 min
Bit rate mode : Constant
Bit rate : 640 kb/s
Channel(s) : 6 channels
Channel positions : Front: L C R, Side: L R, LFE
Sampling rate : 48.0 kHz
Frame rate : 31.250 FPS (1536 spf)
Compression mode : Lossy
Stream size : 520 MiB (4%)
Title : AVO | DD 5.1 @ 640 kbps - V.Gorchakov
Language : Russian
Default : No
Forced : No

Audio #5
ID : 6
Format : AC-3
Format/Info : Audio Coding 3
Mode extension : CM (complete main)
Format settings, Endianness : Big
Codec ID : A_AC3
Duration : 1 h 53 min
Bit rate mode : Constant
Bit rate : 640 kb/s
Channel(s) : 6 channels
Channel positions : Front: L C R, Side: L R, LFE
Sampling rate : 48.0 kHz
Frame rate : 31.250 FPS (1536 spf)
Compression mode : Lossy
Stream size : 520 MiB (4%)
Title : AVO | DD 5.1 @ 640 kbps - L.Volodarsky
Language : Russian
Default : No
Forced : No

Audio #6
ID : 7
Format : AC-3
Format/Info : Audio Coding 3
Mode extension : CM (complete main)
Format settings, Endianness : Big
Codec ID : A_AC3
Duration : 1 h 53 min
Bit rate mode : Constant
Bit rate : 640 kb/s
Channel(s) : 6 channels
Channel positions : Front: L C R, Side: L R, LFE
Sampling rate : 48.0 kHz
Frame rate : 31.250 FPS (1536 spf)
Compression mode : Lossy
Stream size : 520 MiB (4%)
Title : Original | DD 5.1 @ 640 kbps
Language : English
Default : No
Forced : No

Text #1
ID : 8
Format : UTF-8
Codec ID : S_TEXT/UTF8
Codec ID/Info : UTF-8 Plain Text
Title : Forced
Language : Russian
Default : Yes
Forced : No

Text #2
ID : 9
Format : UTF-8
Codec ID : S_TEXT/UTF8
Codec ID/Info : UTF-8 Plain Text
Title : iTunes
Language : Russian
Default : No
Forced : No

Text #3
ID : 10
Format : UTF-8
Codec ID : S_TEXT/UTF8
Codec ID/Info : UTF-8 Plain Text
Title : Voronine
Language : Russian
Default : No
Forced : No

Text #4
ID : 11
Format : UTF-8
Codec ID : S_TEXT/UTF8
Codec ID/Info : UTF-8 Plain Text
Title : SDH
Language : Russian
Default : No
Forced : No

Text #5
ID : 12
Format : UTF-8
Codec ID : S_TEXT/UTF8
Codec ID/Info : UTF-8 Plain Text
Title : Full
Language : English
Default : No
Forced : No

Text #6
ID : 13
Format : UTF-8
Codec ID : S_TEXT/UTF8
Codec ID/Info : UTF-8 Plain Text
Title : SDH
Language : English
Default : No
Forced : No

Text #7
ID : 14
Format : UTF-8
Codec ID : S_TEXT/UTF8
Codec ID/Info : UTF-8 Plain Text
Title : SDH-Colored
Language : English
Default : No
Forced : No

Menu
00:00:00.000 : en:(01)00:00:00:000
00:10:28.168 : en:(02)00:10:28:168
00:17:39.098 : en:(03)00:17:39:098
00:24:50.195 : en:(04)00:24:50:195
00:35:57.947 : en:(05)00:35:57:947
00:46:27.284 : en:(06)00:46:27:284
00:54:34.771 : en:(07)00:54:34:771
01:04:59.561 : en:(08)01:04:59:561
01:12:53.077 : en:(09)01:12:53:077
01:23:08.899 : en:(10)01:23:08:899
01:32:34.131 : en:(11)01:32:34:131
01:42:53.583 : en:(12)01:42:53:583
01:45:46.213 : en:(13)01:45:46:213
01:53:29.219 : en:(14)01:53:29:219
pb.wtf



Скачать Грань будущего через торрент http://i3.imageban.ru/out/2017/09/25/a980c9c28b6db917b99eaa349ddf371a.png Скачать фильм Грань будущего через торрент бесплантно в хорошем качестве Описание: В недалёком будущем раса инопланетян вторгается на Землю. Никакая армия в мире не может противостоять им. Майор Уильям Кейдж ... 10 10 11
Info! Золотая раздача, скачанное не засчитывается.
Торрент: Зарегистрирован [2017-09-25 19:35] · скачан: 235 раз
Статус: √ проверено
Размер: 12.25 GB
Как cкачать? Как скачать Грань будущего через торрент | qTorrent

% Раздел Тема Автор DL S | L
Фильмы [HD 720p, 1080p] (Хороший звук DUB, MVO) [ 6.78 GB ] Грань будущего / Edge of Tomorrow [2014 BDRip-HEVC 1080p ] DUB [] bober100 Скачать
2 | 0
Фильмы (HD 720p, 1080p) (48-60 fps) [ 9.47 GB ] Грань будущего / Edge of Tomorrow [2014 BDRip 1080p 60fps от еnvy / NNNB] DUB еnvy Скачать
3 | 0
3D Видео (48-60 fps) [ 13.7 GB ] Грань будущего / Edge of Tomorrow [2014 Австралия 3D BDRip 1080p / 60 FPS Горизонтальная анаморфная стереопара ] Tiberiumsun69 Скачать
1 | 0
Ultra HD (UHD: 2K, 4K, 8K) — видео сверхвысокой чёткости [ 34.35 GB ] Грань будущего / Edge of Tomorrow [2014 UHD WEB-DL 2160p] 3xAVO+DUB [] bober100 Скачать
2 | 0
Фильмы (Blu-ray, BD-Remux, HDDVD) [ 41.96 GB ] Грань будущего / Edge of Tomorrow [2014 BDRemux 1080p] DUB + 3xAVO [2D 3D] sheker187 Скачать
1 | 0
Фильмы (HD 720p, 1080p) (48-60 fps) [ 4.29 GB ] Грань будущего / Edge of Tomorrow [2014 BDRip-HEVC 720p / 60 FPS Dub Original] Tiberiumsun69 Скачать
53 | 0
Фильмы (HD 720p, 1080p) (48-60 fps) [ 4.92 GB ] Грань будущего / Edge of Tomorrow [2014 BDRip 720p / 60 fps] DUB еnvy Скачать
2 | 0


Последний раз редактировалось: potroks (2017-10-01 05:42), всего редактировалось 3 раз(а)


>> Регистрируемся здесь <<






Отзывы и комментарии о схеме читаем и пишем здесь: ---> Отзывы и комментарии о схеме

Новые благодарочки в телеграм довольных пользователей:
скриншот   скриншот   скриншот   скриншот   скриншот

01-10-2017 16:13 Грань будущего Скачать торрент  

pb.wtf



    Дорогой пользователь! Огромная просьба, поблагодарите релизера, оцените раздачу и оставьте свои комментарий, если Вы скачали Грань будущего через торрент бесплатно! Внесите свою лепту в развитие PiratBit!
    Комментировать посты могут только пользователи прошедшие не сложную регистрацию
    Показать сообщения:    

    Грань будущего через торрент
    Скачать бесплатно Грань будущего
    Грань будущего скачать торрент
    Грань будущего смотреть онлайн
    Cкачать фильм Грань будущего бесплатно
    Грань будущего скачать торрент в хорошем качестве
    Грань будущего смотреть онлайн бесплатно в хорошем качестве


    Вы не можете начинать темы
    Вы не можете отвечать на сообщения
    Вы не можете редактировать свои сообщения
    Вы не можете удалять свои сообщения
    Вы не можете голосовать в опросах
    Вы не можете прикреплять файлы к сообщениям
    Вы можете скачивать файлы