Ссылка на приватное зеркало нашего сайта всего за 1$. Внимание количество ограничено!!!

2 сезон

iTunes

1 сезон

1

iTunes

iTunes

iTunes

1 сезон

RePack

30

ИГРА 18+

pack

ВАЖНО

!!Акция!!

Alien_RageХит недели

RePack

MK11
pack

Забери бонус

RePack

jed

!!Акция!!

Alien_Rage

RePack

fifa19

RePack

Assassins Creed: Odyssey

RePack

NEED FOR SPEED™ PAYBACK

4 сезон

9 сезон

Бесстыжие 9 сезон

Все сериалы

все сериалы на PB.wtf

RePack

FAR CRY 5
  

Квест / Escape Room (Питер Дьюкс) [2017, Ужасы, BDRip 1080p] DUB [iTunes] pb.wtf

Квест через торрент pb.wtf

Размер: 6.79 GB | Добавлен: 3 года назад | Торрент скачан:271 раз
Скачать  

25-09-2017 20:18 Квест Скачать торрент  

Квест / Escape RoomГод выпуска: 2017
Страна: США
Жанр: Ужасы
Продолжительность: 01:26:38
Перевод: Дубляж - [iTunes]
Субтитры: Swedish, Danish, Finnish, Norwegian

Режиссер: Питер Дьюкс

rating

В ролях:

Скит Ульрих, Шон Янг, Кристин Донлон, Рэнди Уэйн, Мэтт МакВэй, Эшли Галлегос, Хейли Голдштейн, Ияд Хаджджадж, Абрахам Джастис, Тейлор Джон Пидмонт ...

Описание:

Фильм о популярном квесте, когда игроки ищут выход из запертого помещения, решая серию головоломок. Четверо молодых друзей, записавшихся на игру, обнаруживают себя в ловушке наедине с демоническим убийцей. За один кошмарный час им нужно решить все загадки, чтобы остаться в живых…

Качество: BDRip 1080p
Формат: MKV
Видео кодек: H.264
Аудио кодек: AC3/DTS

Видео: AVC, 1920x808 (2.40:1), 23.976 fps, 9 326 Kbps (0.251 bit/pixel)
Аудио#1: AC3, 48.0 KHz, 6 ch, 384 Kbps, CBR (Russian)
Аудио#2: DTS, 48.0 KHz, 6 ch, 1 509 Kbps, CBR (English)
скриншот   скриншот   скриншот   скриншот   скриншот  

Общее
Уникальный идентификатор : 253841111024334637117121424711804365295 (0xBEF80509FFDA3B3FA5371B91D0E1A9EF)
Полное имя : Escape room.2017.1080p..mkv
Формат : Matroska
Версия формата : Version 4 / Version 2
Размер файла : 6,79 Гбайт
Продолжительность : 1 ч. 26 м.
Общий поток : 11,2 Мбит/сек
Дата кодирования : UTC 2017-09-25 15:57:29
Программа кодирования : mkvmerge v8.3.0 ('Over the Horizon') 64bit
Библиотека кодирования : libebml v1.3.1 + libmatroska v1.4.2

Видео
Идентификатор : 1
Формат : AVC
Формат/Информация : Advanced Video Codec
Профиль формата : High@L4.1
Параметр CABAC формата : Да
Параметр ReFrames формата : 5 кадров
Идентификатор кодека : V_MPEG4/ISO/AVC
Продолжительность : 1 ч. 26 м.
Битрейт : 9326 Кбит/сек
Ширина : 1920 пикселей
Высота : 808 пикселей
Соотношение сторон : 2,40:1
Режим частоты кадров : Переменный
Частота кадров : 23,976 (24000/1001) кадра/сек
Цветовое пространство : YUV
Субдискретизация насыщенности : 4:2:0
Битовая глубина : 8 бит
Тип развёртки : Прогрессивная
Бит/(Пиксели*Кадры) : 0.251
Размер потока : 5,64 Гбайт (83%)
Библиотека кодирования : x264 core 152 r2851kMod ba24899
Настройки программы : cabac=1 / ref=5 / deblock=1:0:0 / analyse=0x3:0x133 / me=umh / subme=7 / psy=1 / fade_compensate=0.00 / psy_rd=1.00:0.00 / mixed_ref=1 / me_range=16 / chroma_me=1 / trellis=2 / 8x8dct=1 / cqm=0 / deadzone=21,11 / fast_pskip=0 / chroma_qp_offset=-2 / threads=18 / lookahead_threads=3 / sliced_threads=0 / nr=0 / decimate=1 / interlaced=0 / bluray_compat=0 / constrained_intra=0 / bframes=3 / b_pyramid=2 / b_adapt=1 / b_bias=0 / direct=3 / weightb=1 / open_gop=0 / weightp=2 / keyint=250 / keyint_min=23 / scenecut=40 / intra_refresh=0 / rc_lookahead=50 / rc=2pass / mbtree=1 / bitrate=9326 / ratetol=1.0 / qcomp=0.60 / qpmin=0 / qpmax=69 / qpstep=4 / cplxblur=20.0 / qblur=0.5 / ip_ratio=1.40 / aq=1:1.00
Язык : English
Default : Да
Forced : Нет

Аудио #1
Идентификатор : 2
Формат : AC-3
Формат/Информация : Audio Coding 3
Параметр Endianness формата : Big
Идентификатор кодека : A_AC3
Продолжительность : 1 ч. 26 м.
Вид битрейта : Постоянный
Битрейт : 384 Кбит/сек
Каналы : 6 каналов
Расположение каналов : Front: L C R, Side: L R, LFE
Частота : 48,0 КГц
Частота кадров : 31,250 кадров/сек (1536 spf)
Битовая глубина : 16 бит
Метод сжатия : С потерями
Размер потока : 238 Мбайт (3%)
Заголовок : iTunes
Язык : Russian
Default : Нет
Forced : Нет

Аудио #2
Идентификатор : 3
Формат : DTS
Формат/Информация : Digital Theater Systems
Режим : 16
Параметр Endianness формата : Big
Идентификатор кодека : A_DTS
Продолжительность : 1 ч. 26 м.
Вид битрейта : Постоянный
Битрейт : 1509 Кбит/сек
Каналы : 6 каналов
Расположение каналов : Front: L C R, Side: L R, LFE
Частота : 48,0 КГц
Частота кадров : 93,750 кадра/сек (512 spf)
Битовая глубина : 24 бит
Метод сжатия : С потерями
Размер потока : 935 Мбайт (13%)
Язык : English
Default : Нет
Forced : Нет

Текст #1
Идентификатор : 4
Формат : VobSub
Режим смешивания : zlib
Идентификатор кодека : S_VOBSUB
Продолжительность : 1 ч. 20 м.
Битрейт : 3603 бит/сек
ElementCount : 557
Размер потока : 2,08 Мбайт (0%)
Язык : Swedish
Default : Да
Forced : Нет

Текст #2
Идентификатор : 5
Формат : VobSub
Режим смешивания : zlib
Идентификатор кодека : S_VOBSUB
Продолжительность : 1 ч. 20 м.
Битрейт : 3583 бит/сек
ElementCount : 557
Размер потока : 2,07 Мбайт (0%)
Язык : Danish
Default : Нет
Forced : Нет

Текст #3
Идентификатор : 6
Формат : VobSub
Режим смешивания : zlib
Идентификатор кодека : S_VOBSUB
Продолжительность : 1 ч. 20 м.
Битрейт : 3504 бит/сек
ElementCount : 557
Размер потока : 2,02 Мбайт (0%)
Язык : Finnish
Default : Нет
Forced : Нет

Текст #4
Идентификатор : 7
Формат : VobSub
Режим смешивания : zlib
Идентификатор кодека : S_VOBSUB
Продолжительность : 1 ч. 20 м.
Битрейт : 3466 бит/сек
ElementCount : 557
Размер потока : 2,00 Мбайт (0%)
Язык : Norwegian
Default : Нет
Forced : Нет

Меню
00:00:00.000 : en:00:00:00.000
00:11:23.016 : en:00:11:23.016
00:24:30.970 : en:00:24:30.970
00:35:22.454 : en:00:35:22.454
00:48:09.929 : en:00:48:09.929
00:59:53.048 : en:00:59:53.048
01:11:44.175 : en:01:11:44.175
01:19:49.910 : en:01:19:49.910
01:26:26.139 : en:01:26:26.139

pb.wtf



Скачать Квест через торрент http://s019.radikal.ru/i621/1709/0d/64a821d4c7bf.png Скачать фильм Квест через торрент бесплантно в хорошем качестве Описание: Фильм о популярном квесте, когда игроки ищут выход из запертого помещения, решая серию головоломок. Четверо молодых друзей, ... 9.9 10 8
Торрент: Зарегистрирован [2017-09-25 20:18] · скачан: 271 раз
Статус: T временная
Размер: 6.79 GB
Как cкачать? Как скачать Квест через торрент | qTorrent

% Раздел Тема Автор DL S | L
T Фильмы 2018 [DVDrip, WEB-DLRip, HDrip] (DUB, MVO) [ 1.46 GB ] Смертельный квест / No Escape Room [2018 WEB-DLRip] MVO [HDRezka] - ExKinoRay Enigma2010 Скачать
1 | 0
T Фильмы (WEB-DL 720p, 1080p) [ 3.36 GB ] Смертельный квест / No Escape Room [2018 WEB-DL 1080p] MVO [HDRezka Studio] - ExKinoRay Enigma2010 Скачать
1 | 0
T Фильмы (мультфильмы) cо спонсором показа (Новинки AVI/MKV) [ 2.99 GB ] Смертельный квест / No Escape Room [2018 WEB-DL 720p] MVO ["Синема УС"] bober100 Скачать
1 | 0
T Фильмы (мультфильмы) cо спонсором показа (Новинки AVI/MKV) [ 1.37 GB ] Смертельный квест / No Escape Room [2018 WEB-DLRip] MVO ["Синема УС"] bober100 Скачать
1 | 0
Фильмы 2017 [DVDrip, WEB-DLRip, HDrip] (DUB, MVO) [ 1.37 GB ] Квест / Escape Room [2017 HDRip] bober100 Скачать
1 | 0
# Фильмы [HD 720p, 1080p] (Хороший звук DUB, MVO) [ 4.44 GB ] Квест / Escape Room [2017 BDRip 720p] bober100 Скачать
1 | 0

28-11-2019 20:33  

Отключить всю рекламу на сайте

26-09-2017 08:21 Квест Скачать торрент  

Не смотрите это любительская лажа с 4 подобиями актеров и бюджетом 500 евро на всех.pb.wtf



26-09-2017 18:32 Квест Скачать торрент  

Eldrim писал(а):

Не смотрите это любительская лажа с 4 подобиями актеров и бюджетом 500 евро на всех.

оригинальная рецензия. чего то такого и ожидал с фильмом рейтинга 4pb.wtf



    Дорогой пользователь! Огромная просьба, поблагодарите релизера, оцените раздачу и оставьте свои комментарий, если Вы скачали Квест через торрент бесплатно! Внесите свою лепту в развитие PiratBit!
    Комментировать посты могут только пользователи прошедшие не сложную регистрацию
    Показать сообщения:    

    Квест через торрент
    Скачать бесплатно Квест
    Квест скачать торрент
    Квест смотреть онлайн
    Cкачать фильм Квест бесплатно
    Квест скачать торрент в хорошем качестве
    Квест смотреть онлайн бесплатно в хорошем качестве


    Вы не можете начинать темы
    Вы не можете отвечать на сообщения
    Вы не можете редактировать свои сообщения
    Вы не можете удалять свои сообщения
    Вы не можете голосовать в опросах
    Вы не можете прикреплять файлы к сообщениям
    Вы можете скачивать файлы