Ссылка на приватное зеркало нашего сайта всего за 1$. Внимание количество ограничено!!!

2 сезон

iTunes

1 сезон

1

2 сезон

2 сезон

iTunes

1 сезон

RePack

30

Ultimate

ВАЖНО

ИГРА 18+

pack

RePack

MK11
pack

Забери бонус

RePack

jed

!!Акция!!

Alien_Rage

RePack

fifa19

RePack

Assassins Creed: Odyssey

RePack

NEED FOR SPEED™ PAYBACK

4 сезон

9 сезон

Бесстыжие 9 сезон

Все сериалы

все сериалы на PB.wtf

RePack

FAR CRY 5
  

Звёздный путь: Дискавери / Star Trek: Discovery / Сезон: 1 / Серии 1-5 из 15 (Акива Голдсман, Адам Кэйн, Ли Роуз) [2017 , США, Приключения, фантастика, WEBRip-AVC] MVO [BaibaKo] pb.wtf

Звёздный путь: Дискавери через торрент pb.wtf

Размер: 4.02 GB | Добавлен: 3 года 1 мес. назад | Торрент скачан:31 раз
Скачать  

26-09-2017 06:34 Звёздный путь: Дискавери Скачать торрент  

Звёздный путь: Дискавери / Star Trek: Discovery
«На краю вселенной, начинаются открытия»


  • Год выпуска: 2017
  • Страна: США
  • Жанр: Приключения, фантастика
  • Продолжительность: ~00:44:00 (Серия)
  • Перевод: Профессиональный многоголосый [BaibaKo]
  • Режиссер: Акива Голдсман, Адам Кэйн, Ли Роуз
  • В ролях:
    Джейсон Айзекс, Даг Джонс, Шазад Латиф, Сонекуа Мартин-Грин, Молик Панчоли, Энтони Рэпп, Мишель Йео, Кеннет Митчелл, Дэймон Рунян


  • За 10 лет до начала истории, описанной в оригинальном сериале «Звёздный путь», экипаж корабля USS Discovery NCC-1031 отправляется в путешествие, чтобы изучать глубокий космос и открыть новые миры и цивилизации.
  • Рейтинг:



  • Качество: WEBRip-AVC
  • Формат: :MPEG-4
  • Видео кодек: AVC
  • Аудио кодек: AC3
  • Видео: 1840 Кбит/сек, 1024*576 (16:9), в 23,976 (24000/1001) кадра/сек, AVC
  • Аудио: 1 384 Кбит/сек, 48,0 КГц, 16 бит, 6 каналов, AC-3 |[BaibaKo]|
  • Аудио: 2 384 Кбит/сек, 48,0 КГц, 16 бит, 6 каналов, AC-3
  • Релиз от: GEKADOL

    Внимание! Раздача ведётся путём добавления новых серий; при каждом добавлении создаётся новый торрент. Чтобы начать докачку новой серии, пользователям необходимо сделать следующее:
    (1) остановить скачивание,
    (2) удалить старый торрент у себя из клиента (старые серии удалять не надо),
    (3) скачать новый торрент и запустить его у себя в клиенте вместо старого, при этом указать клиенту путь в старую папку куда и должно происходить скачивание новых серий.
    Ваш клиент при этом должен произвести хеширование (проверку) старой папки (если не производит сам - помогите ему сделать это), и будет докачивать только те серии которых у вас ещё нет. Старые серии при этом не удаляются, а продолжают раздаваться!
    Eсли вы уже удалили старые серии, то предотвратить повторную закачку старых серий можно, отжав галочку в соответствующих местах при запуске нового торрента. По возможности, желательно не удалять старые серии как можно дольше чтобы релизёр не столько продолжал раздавать старые серии, а смог сконцентрироваться на новых.

    Общее
    Полное имя : F:\Звёздный путь - Дискавери (Star Trek - Discovery)\Star.Trek.Discovery.s01e03.WEBRip-AVC.Rus.Eng.BaibaKo.tv.mp4
    Формат : MPEG-4
    Профиль формата : Base Media
    Идентификатор кодека : isom (isom/iso2/avc1/mp41)
    Размер файла : 877 Мбайт
    Продолжительность : 46 м. 54 с.
    Общий поток : 2613 Кбит/сек
    Программа кодирования : XviD4PSP 7.0.408 DAILY
    HDVideo : Yes
    encoding_info : MATROSKA / WEBM > MP4 Произвольный / H264 > X264 CBR 2000kbps HQ / AC3 > AC3 CBR 384kbps / AC3 > AC3 CBR 384kbps

    Видео
    Идентификатор : 1
    Формат : AVC
    Формат/Информация : Advanced Video Codec
    Профиль формата : High@L3.1
    Параметр CABAC формата : Да
    Параметр RefFrames формата : 4 кадра
    Идентификатор кодека : avc1
    Идентификатор кодека/Информация : Advanced Video Coding
    Продолжительность : 46 м. 54 с.
    Битрейт : 1840 Кбит/сек
    Номинальный битрейт : 2000 Кбит/сек
    Ширина : 1024 пикселя
    Высота : 576 пикселей
    Соотношение сторон : 16:9
    Режим частоты кадров : Постоянный
    Частота кадров : 23,976 (24000/1001) кадра/сек
    Цветовое пространство : YUV
    Субдискретизация насыщенности : 4:2:0
    Битовая глубина : 8 бит
    Тип развёртки : Прогрессивная
    Бит/(Пиксели*Кадры) : 0.130
    Размер потока : 617 Мбайт (70%)
    Библиотека кодирования : x264 core 152 r2851M ba24899
    Настройки программы : cabac=1 / ref=3 / deblock=1:-1:-1 / analyse=0x3:0x133 / me=hex / subme=7 / psy=1 / psy_rd=1.00:0.20 / mixed_ref=1 / me_range=16 / chroma_me=1 / trellis=1 / 8x8dct=1 / cqm=0 / deadzone=21,11 / fast_pskip=1 / chroma_qp_offset=-3 / threads=5 / lookahead_threads=1 / sliced_threads=0 / nr=0 / decimate=1 / interlaced=0 / bluray_compat=0 / constrained_intra=0 / bframes=3 / b_pyramid=2 / b_adapt=2 / b_bias=0 / direct=3 / weightb=1 / open_gop=0 / weightp=2 / keyint=230 / keyint_min=23 / scenecut=40 / intra_refresh=0 / rc_lookahead=40 / rc=cbr / mbtree=1 / bitrate=2000 / ratetol=1.0 / qcomp=0.60 / qpmin=0 / qpmax=69 / qpstep=4 / vbv_maxrate=2000 / vbv_bufsize=1428 / nal_hrd=none / filler=0 / ip_ratio=1.40 / aq=1:1.00

    Аудио #1
    Идентификатор : 2
    Формат : AC-3
    Формат/Информация : Audio Coding 3
    Параметр Endianness формата : Big
    Идентификатор кодека : ac-3
    Продолжительность : 46 м. 54 с.
    Вид битрейта : Постоянный
    Битрейт : 384 Кбит/сек
    Каналы : 6 каналов
    Расположение каналов : Front: L C R, Side: L R, LFE
    Частота : 48,0 КГц
    Частота кадров : 31,250 кадров/сек (1536 SPF)
    Битовая глубина : 16 бит
    Метод сжатия : С потерями
    Размер потока : 129 Мбайт (15%)
    Язык : Russian
    ServiceKind/String : Complete Main
    Default : Да
    AlternateGroup/String : 1

    Аудио #2
    Идентификатор : 3
    Формат : AC-3
    Формат/Информация : Audio Coding 3
    Параметр Endianness формата : Big
    Идентификатор кодека : ac-3
    Продолжительность : 46 м. 54 с.
    Вид битрейта : Постоянный
    Битрейт : 384 Кбит/сек
    Каналы : 6 каналов
    Расположение каналов : Front: L C R, Side: L R, LFE
    Частота : 48,0 КГц
    Частота кадров : 31,250 кадров/сек (1536 SPF)
    Битовая глубина : 16 бит
    Метод сжатия : С потерями
    Размер потока : 129 Мбайт (15%)
    Язык : English
    ServiceKind/String : Complete Main
    Default : Нет
    AlternateGroup/String : 1



    Скриншоты:
    скриншот   скриншот   скриншот   скриншот   скриншот   скриншот   скриншот  
    скриншот  

    Раздача ведётся путём добавления новых серий. Добавлена 5 серия (17.10.2017).Просьба перекачать торрент файл.

    pb.wtf



  • Скачать Звёздный путь: Дискавери через торрент http://pic1.kartinco.top/images/11/dhgqs.jpg Скачать фильм Звёздный путь: Дискавери через торрент бесплантно в хорошем качестве qw.png За 10 лет до начала истории, описанной в оригинальном сериале «Звёздный путь», экипаж корабля USS Discovery NCC-1031 отправляется ... 10 10 15
    Info! Серебряная раздача, засчитывается только 50% скачанного.
    Торрент: Зарегистрирован [2017-10-16 23:32] · скачан: 31 раз
    Статус: √ проверено
    Размер: 4.02 GB
    Как cкачать? Как скачать Звёздный путь: Дискавери через торрент | qTorrent



    Последний раз редактировалось: GEKADOL (2017-10-16 23:32), всего редактировалось 4 раз(а)

    28-11-2019 20:33  

    Отключить всю рекламу на сайте

    26-09-2017 11:59 Звёздный путь: Дискавери Скачать торрент  

    Да Сколько можно уже делать "Star Trek" уже просто беситpb.wtf



    27-09-2017 04:27 Звёздный путь: Дискавери Скачать торрент  

    Начало сериала слабенькое, на мой взгляд, ожидал большего. Посмотрим что будет дальше ! Пиндосовский пафос зашкаливает ! Буду ''болеть'' за инопланетян !
    Да, и командер негр ! (это типа Спок ?) pb.wtf



    03-10-2017 07:30 Звёздный путь: Дискавери Скачать торрент  

    прикольный сериал))))за него спасибки)))pb.wtf



    10-10-2017 14:01 Звёздный путь: Дискавери Скачать торрент  

    ешки матрешки,баба в скафандре пролетела 2000 км за 10 минут! Просто в скафандре КАРЛ!. Это около 3км.в секунду ее скорость была,она даже не поморщилась)pb.wtf



    19-10-2017 05:10 Звёздный путь: Дискавери Скачать торрент  

    блин жду в HD от байбако-а их нету(pb.wtf



    23-10-2017 03:58 Звёздный путь: Дискавери Скачать торрент  

    Ну раз нигде кроме RyТора нет в *avi будем качать тут ))))Раздаю иногда так что берите с не Забываем лайкать меня за Раздачу
    pb.wtf



      Дорогой пользователь! Огромная просьба, поблагодарите релизера, оцените раздачу и оставьте свои комментарий, если Вы скачали Звёздный путь: Дискавери через торрент бесплатно! Внесите свою лепту в развитие PiratBit!
      Комментировать посты могут только пользователи прошедшие не сложную регистрацию
      Показать сообщения:    

      Звёздный путь: Дискавери через торрент
      Скачать бесплатно Звёздный путь: Дискавери
      Звёздный путь: Дискавери скачать торрент
      Звёздный путь: Дискавери смотреть онлайн
      Cкачать фильм Звёздный путь: Дискавери бесплатно
      Звёздный путь: Дискавери скачать торрент в хорошем качестве
      Звёздный путь: Дискавери смотреть онлайн бесплатно в хорошем качестве


      Вы не можете начинать темы
      Вы не можете отвечать на сообщения
      Вы не можете редактировать свои сообщения
      Вы не можете удалять свои сообщения
      Вы не можете голосовать в опросах
      Вы не можете прикреплять файлы к сообщениям
      Вы можете скачивать файлы