новый адрес пиратбит piratbit
Мега распродажа FORZA HORIZON 4 ULTIMATE+ВСЕ DLC+ОНЛАЙН всего за 499р. 349 руб. (супер цена). Внимание количество ограничено!!!

iTunes

1+1

iTunes

мы

iTunes

1

iTunes

Чернобыль

iTunes

Ральф против интернета

Лицензия

ПШазам

Лицензия

Игра престолов

Лицензия

30
pack

ВАЖНО

!!Акция!!

Alien_RageХит недели

RePack

Resident Evil 21

ИГРА 18+

pack

RePack

Metro:Exodus

!!Акция!!

Alien_Rage

RePack

fifa19

RePack

Assassins Creed: Odyssey

RePack

NEED FOR SPEED™ PAYBACK

3 сезон

9 сезон

Бесстыжие 9 сезон

Все сериалы

все сериалы на PB.wtf

RePack

FAR CRY 5
Ребята, катастрофически не хватает 1900р. для оплаты серверов за Октябрь (всвязи с блокировками трафик упал в 3 раза), 1-2р., выручайте.
  

Кочубей (Юрий Озеров) [1958, СССР, военный, история, SATRip от AVP Studio] pb.wtf

Кочубей через торрент pb.wtf

Размер: 746 MB | Добавлен: 2 года 1 мес. назад | Торрент скачан:22 раза
Скачать  

26-09-2017 07:18 Кочубей Скачать торрент  

Кочубей
Страна: СССР
Производство: Ленфильм

Жанр: военный, история
Год выпуска: 1958
Продолжительность: 01:42:22

Перевод: Не требуется
Cубтитры: нет
Оригинальная аудиодорожка: русский

Режиссер: Юрий Озеров

В ролях:
Николай Рыбников, Павел Усовниченко, Сергей Яковлев, Людмила Хитяева, Станислав Станкевич, Юлиан Панич, Константин Сорокин, Михаил Васильев, Вячеслав Воронин, Борис Александров (III), Фёдор Шмаков, Владимир Татосов, Олег Жаков, Юнона Белоручева, Людмила Касьянова, Александр Белокринкин, Ефим Копелян...
Об актёрах подробней

Описание:
По одноименному роману Аркадия Первенцева.
1918 год. Храбрый, но бесшабашный герой гражданской войны Кочубей (Николай Рыбников), слава о котором разнеслась по всей Кубани, решает, наконец, взять на вооружение дисциплину и знание военной науки...

Источник: DVB
Качество видео: SATRip
Формат видео: AVI

Видео: 688x336 (2,048:1), 25 fps, XviD ~ 817 kbps avg, 0.141 bit/pixel
Аудио: 48 kHz, Dolby Digital AC3 2.0, 192 kbps

Раздача от:
Общее
Полное имя : Kochubey.1958.SATRip_[New-team]_by_AVP_Studio.avi
Формат : AVI
Формат/Информация : Audio Video Interleave
Размер файла : 746 Мбайт
Продолжительность : 1 ч. 42 м.
Общий поток : 1019 Кбит/сек
Программа кодирования : VirtualDubMod 1.5.10.3 | www.virtualdub-fr.org || (build 2550/release)
Библиотека кодирования : VirtualDubMod build 2550/release

Видео
Идентификатор : 0
Формат : MPEG-4 Visual
Профиль формата : Advanced Simple@L5
Параметр BVOP формата : 1
Параметр QPel формата : Нет
Параметр GMC формата : Без точки перехода
Параметр матрицы формата : Выборочная
Идентификатор кодека : XVID
Идентификатор кодека/Подсказка : XviD
Продолжительность : 1 ч. 42 м.
Битрейт : 817 Кбит/сек
Ширина : 688 пикселей
Высота : 336 пикселей
Соотношение сторон : 2,048
Частота кадров : 25,000 кадров/сек
Цветовое пространство : YUV
Субдискретизация насыщенности : 4:2:0
Битовая глубина : 8 бит
Тип развёртки : Прогрессивная
Метод сжатия : С потерями
Бит/(Пиксели*Кадры) : 0.141
Размер потока : 598 Мбайт (80%)
Библиотека кодирования : XviD 73

Аудио
Идентификатор : 1
Формат : AC-3
Формат/Информация : Audio Coding 3
Параметр Endianness формата : Big
Идентификатор кодека : 2000
Продолжительность : 1 ч. 42 м.
Вид битрейта : Постоянный
Битрейт : 192 Кбит/сек
Каналы : 2 канала
Расположение каналов : Front: L R
Частота : 48,0 КГц
Частота кадров : 31,250 кадров/сек (1536 SPF)
Битовая глубина : 16 бит
Метод сжатия : С потерями
Размер потока : 141 Мбайт (19%)
Выравнивание : Разделение по промежуткам
Продолжительность промежутка : 40 мс. (1,00 видеокадр)
Время предзагрузки промежутка : 500 мс
pb.wtf



Скачать Кочубей через торрент http://s018.radikal.ru/i506/1709/47/82e2a258f708.png Скачать фильм Кочубей через торрент бесплантно в хорошем качестве Описание:По одноименному роману Аркадия Первенцева.1918 год. Храбрый, но бесшабашный герой гражданской войны Кочубей (Николай Рыбников), ... 10 10 1
Info! Золотая раздача, скачанное не засчитывается.
Торрент: Зарегистрирован [2017-09-26 07:18] · скачан: 22 раз
Статус: √ проверено
Размер: 746 MB
Как cкачать? Как скачать Кочубей через торрент | qTorrent

% Раздел Тема Автор DL S | L
Кино СССР [ 1.09 GB ] Кочубей [1958 СССР военный история SATRip-AVC от AVP Studio] AVP Studio Скачать
1 | 0
Документальные фильмы и телепередачи [ 32.08 GB ] Подводная охота [2007-2009 г Документальный DVDRip Оригинал] Ворон Скачать
1 | 0
Кино СССР [ 1.37 GB ] Кочубей / Kochubey [1958 военный история DVDRip] feldeger Скачать
1 | 0


>> Регистрируемся здесь <<






Отзывы и комментарии о схеме читаем и пишем здесь: ---> Отзывы и комментарии о схеме

Новые благодарочки в телеграм довольных пользователей:
скриншот   скриншот   скриншот   скриншот   скриншот
    Дорогой пользователь! Огромная просьба, поблагодарите релизера, оцените раздачу и оставьте свои комментарий, если Вы скачали Кочубей через торрент бесплатно! Внесите свою лепту в развитие PiratBit!
    Комментировать посты могут только пользователи прошедшие не сложную регистрацию
    Показать сообщения:    

    Кочубей через торрент
    Скачать бесплатно Кочубей
    Кочубей скачать торрент
    Кочубей смотреть онлайн
    Cкачать фильм Кочубей бесплатно
    Кочубей скачать торрент в хорошем качестве
    Кочубей смотреть онлайн бесплатно в хорошем качестве


    Вы не можете начинать темы
    Вы не можете отвечать на сообщения
    Вы не можете редактировать свои сообщения
    Вы не можете удалять свои сообщения
    Вы не можете голосовать в опросах
    Вы не можете прикреплять файлы к сообщениям
    Вы можете скачивать файлы