новый адрес
Ссылка на приватное зеркало всего за 1$. Внимание количество ограничено!!!

iTunes

1+1

iTunes

мы

iTunes

1

iTunes

Чернобыль

iTunes

Ральф против интернета

Лицензия

ПШазам

Лицензия

Оно 2

Лицензия

30
pack

Вам бонус

ВАЖНО

!!Акция!!

Alien_RageХит недели

RePack

Resident Evil 21

ИГРА 18+

pack

RePack

jed

!!Акция!!

Alien_Rage

RePack

fifa19

RePack

Assassins Creed: Odyssey

RePack

NEED FOR SPEED™ PAYBACK

3 сезон

9 сезон

Бесстыжие 9 сезон

Все сериалы

все сериалы на PB.wtf

RePack

FAR CRY 5
Ребята, катастрофически не хватает 1900р. для оплаты серверов за Октябрь (всвязи с блокировками трафик упал в 3 раза), 1-2р., выручайте.
  

Кочубей (Юрий Озеров) [1958, СССР, военный, история, SATRip-AVC от AVP Studio] pb.wtf

Кочубей через торрент pb.wtf

Размер: 1.09 GB | Добавлен: 2 года 1 мес. назад | Торрент скачан:36 раз
Скачать  

26-09-2017 07:19 Кочубей Скачать торрент  

Кочубей
Страна: СССР
Производство: Ленфильм

Жанр: военный, история
Год выпуска: 1958
Продолжительность: 01:42:22

Перевод: Не требуется
Cубтитры: нет
Оригинальная аудиодорожка: русский

Режиссер: Юрий Озеров

В ролях:
Николай Рыбников, Павел Усовниченко, Сергей Яковлев, Людмила Хитяева, Станислав Станкевич, Юлиан Панич, Константин Сорокин, Михаил Васильев, Вячеслав Воронин, Борис Александров (III), Фёдор Шмаков, Владимир Татосов, Олег Жаков, Юнона Белоручева, Людмила Касьянова, Александр Белокринкин, Ефим Копелян...
Об актёрах подробней

Описание:
По одноименному роману Аркадия Первенцева.
1918 год. Храбрый, но бесшабашный герой гражданской войны Кочубей (Николай Рыбников), слава о котором разнеслась по всей Кубани, решает, наконец, взять на вооружение дисциплину и знание военной науки...

Источник: DVB
Качество видео: SATRip-AVC
Формат видео: MKV

Видео: 704->750x366 (2,049:1), 25 fps, H264 ~ 1329 kbps avg, 0.206 bit/pixel
Аудио: 48 kHz, Dolby Digital AC3 2.0, 192 kbps

Раздача от:
Общее
Полное имя : Kochubey.1958.SATRip-AVC_[New-team]_by_AVP_Studio.mkv
Формат : Matroska
Версия формата : Version 2
Размер файла : 1,09 Гбайт
Продолжительность : 1 ч. 42 м.
Общий поток : 1523 Кбит/сек
Дата кодирования : UTC 2017-09-23 16:21:20
Программа кодирования : mkvmerge v6.1.0 ('Old Devil') built on Mar 4 2013 09:10:42
Библиотека кодирования : libebml v1.3.0 + libmatroska v1.4.0

Видео
Идентификатор : 1
Формат : AVC
Формат/Информация : Advanced Video Codec
Профиль формата : High@L4.1
Параметр CABAC формата : Да
Параметр RefFrames формата : 10 кадров
Идентификатор кодека : V_MPEG4/ISO/AVC
Продолжительность : 1 ч. 42 м.
Битрейт : 1329 Кбит/сек
Ширина : 704 пикселя
Высота : 366 пикселей
Соотношение сторон : 2,049
Соотношение сторон в оригинале : 2,050
Режим частоты кадров : Постоянный
Частота кадров : 25,000 кадров/сек
Цветовое пространство : YUV
Субдискретизация насыщенности : 4:2:0
Битовая глубина : 8 бит
Тип развёртки : Прогрессивная
Бит/(Пиксели*Кадры) : 0.206
Размер потока : 952 Мбайт (85%)
Библиотека кодирования : x264 core 130 r2273 b3065e6
Настройки программы : cabac=1 / ref=10 / deblock=1:-2:-1 / analyse=0x3:0x113 / me=umh / subme=10 / psy=1 / psy_rd=1.00:0.00 / mixed_ref=1 / me_range=32 / chroma_me=1 / trellis=2 / 8x8dct=1 / cqm=0 / deadzone=21,11 / fast_pskip=1 / chroma_qp_offset=-2 / threads=6 / lookahead_threads=1 / sliced_threads=0 / nr=0 / decimate=0 / interlaced=0 / bluray_compat=0 / constrained_intra=0 / bframes=8 / b_pyramid=2 / b_adapt=2 / b_bias=0 / direct=3 / weightb=1 / open_gop=0 / weightp=2 / keyint=250 / keyint_min=25 / scenecut=40 / intra_refresh=0 / rc=2pass / mbtree=0 / bitrate=1329 / ratetol=1.0 / qcomp=0.60 / qpmin=0 / qpmax=69 / qpstep=4 / cplxblur=20.0 / qblur=0.5 / ip_ratio=1.40 / pb_ratio=1.30 / aq=1:1.00
Default : Да
Forced : Нет

Аудио
Идентификатор : 2
Формат : AC-3
Формат/Информация : Audio Coding 3
Параметр Endianness формата : Big
Идентификатор кодека : A_AC3
Продолжительность : 1 ч. 42 м.
Вид битрейта : Постоянный
Битрейт : 192 Кбит/сек
Каналы : 2 канала
Расположение каналов : Front: C
Частота : 48,0 КГц
Частота кадров : 31,250 кадров/сек (1536 SPF)
Битовая глубина : 16 бит
Метод сжатия : С потерями
Размер потока : 141 Мбайт (13%)
Default : Да
Forced : Нет
pb.wtf



Скачать Кочубей через торрент http://s018.radikal.ru/i506/1709/47/82e2a258f708.png Скачать фильм Кочубей через торрент бесплантно в хорошем качестве Описание:По одноименному роману Аркадия Первенцева.1918 год. Храбрый, но бесшабашный герой гражданской войны Кочубей (Николай Рыбников), ... 10 10 3
Info! Золотая раздача, скачанное не засчитывается.
Торрент: Зарегистрирован [2017-09-26 07:19] · скачан: 36 раз
Статус: √ проверено
Размер: 1.09 GB
Как cкачать? Как скачать Кочубей через торрент | qTorrent

% Раздел Тема Автор DL S | L
Кино СССР [ 746 MB ] Кочубей [1958 СССР военный история SATRip от AVP Studio] AVP Studio Скачать
1 | 0
Документальные фильмы и телепередачи [ 32.08 GB ] Подводная охота [2007-2009 г Документальный DVDRip Оригинал] Ворон Скачать
1 | 0
Кино СССР [ 1.37 GB ] Кочубей / Kochubey [1958 военный история DVDRip] feldeger Скачать
1 | 0
    Дорогой пользователь! Огромная просьба, поблагодарите релизера, оцените раздачу и оставьте свои комментарий, если Вы скачали Кочубей через торрент бесплатно! Внесите свою лепту в развитие PiratBit!
    Комментировать посты могут только пользователи прошедшие не сложную регистрацию
    Показать сообщения:    

    Кочубей через торрент
    Скачать бесплатно Кочубей
    Кочубей скачать торрент
    Кочубей смотреть онлайн
    Cкачать фильм Кочубей бесплатно
    Кочубей скачать торрент в хорошем качестве
    Кочубей смотреть онлайн бесплатно в хорошем качестве


    Вы не можете начинать темы
    Вы не можете отвечать на сообщения
    Вы не можете редактировать свои сообщения
    Вы не можете удалять свои сообщения
    Вы не можете голосовать в опросах
    Вы не можете прикреплять файлы к сообщениям
    Вы можете скачивать файлы