>

7.4

iTunes

7.4

2 сезон

9.4

1 сезон

1

7.4

2 сезон

7.2

iTunes

6.0

MVO

13

6.1

iTunes

8.3

Пиратка

30

ULTIMATE

pack

9.9

Лицензия

ВАЖНО

ИГРА 18+

pack

7.3

RePack

MK11

7.7

RePack

jed

7.8

RePack

fifa19

8.5

RePack

RDR2

RePack

NEED FOR SPEED™ PAYBACK

1 сезон

9 сезон

Бесстыжие 9 сезон

Все сериалы

все сериалы на PB.wtf

RePack

FAR CRY 5

Anonymous, доброй ночи, мы катастрофически не успеваем собрать деньги на оплату серверов, помогите нам пожалуйста 5,10,15р., для нас важна любая помощь . В качестве благодарности мы отключим Вам всю рекламу на сайте (укажите свой ник в строку Ваше имя)!

×
  
Magnet ссылка

Его собачье дело / Однажды в Венисе / Once Upon a Time in Venice (Марк Каллен, Робб Каллен) [2017, боевик, триллер, комедия, BDRip-AVC] [AVO] (М.Яроцкий (kyberpunk)) pb.wtf

Его собачье дело через торрент pb.wtf

Размер: 1.69 GB | Добавлен: 4 года 3 мес. назад | Торрент скачан:39 раз
Смотреть онлайн Его собачье дело | Скачать    Ребята, помогите собрать деньги на оплату серверов!!!

26-09-2017 15:58 Его собачье дело Скачать торрент  

Его собачье дело / Однажды в Венисе / Once Upon a Time in Venice


Год выпуска: 2017
Страна: США
Продолжительность: 01:33:53
Жанр: боевик, триллер, комедия
Перевод: Авторский (одноголосый, закадровый) Михаил Яроцкий (kyberpunk)
Субтитры: английские

Режиссёр: Марк Каллен, Робб Каллен

В Ролях: Брюс Уиллис ,Джейсон Момоа, Джон Гудман, Томас Миддлдитч, Фамке Янссен, Адам Голдберг, Элизабет Рём, Стефани Сигман, Вуд Харрис, Кэл Пенн

Сюжет: Действие фильма будет происходить в Лос-Анджелесе. Профессиональная и личная жизнь главного героя пошла под откос, когда его пса Бадди похищает группа бандитов. Чтобы вернуть любимого питомца, частный детектив соглашается выполнять поручения преступников. Но пока он занят возвращением четвероногого друга, по его следам идут враги, среди которых двое суровых парней из Самоа, подручные ростовщика, которому герой задолжал деньги.



Качество: BDRip-AVC
Формат: MKV
Видео: MPEG-4 AVC, 1024x426,1676 Kbps, 24 fps
Аудио: 48 kHz, AC3 Dolby Digital, 6 ch, ~448 kbps - AVO
Аудио: 48 kHz, AC3 Dolby Digital, 6 ch, ~448 kbps - ENG

Цитата:

перевод Михаила Яроцкого доступен благодаря dikii. Работа со звуком и постер от mihaildns.

General
Unique ID : 187635162762076747652230781927588455604 (0x8D2937C59085B13A98DE65708A0D64B4)
Complete name : E:\INTERNET\Once Upon a Time in Venice.2017.BDRip-AVC.AVO.Kyberpunk.mkv
Format : Matroska
Format version : Version 4 / Version 2
File size : 1.69 GiB
Duration : 1h 33mn
Overall bit rate : 2 570 Kbps
Encoded date : UTC 2017-09-26 10:14:38
Writing application : mkvmerge v8.3.0 ('Over the Horizon') 64bit
Writing library : libebml v1.3.1 + libmatroska v1.4.2
Attachements : cover.jpg
DURATION : 01:30:11.660000000
NUMBER_OF_FRAMES : 1426
NUMBER_OF_BYTES : 48243
_STATISTICS_WRITING_APP : mkvmerge v8.3.0 ('Over the Horizon') 64bit
_STATISTICS_WRITING_DATE_UTC : 2017-09-26 10:14:38
_STATISTICS_TAGS : BPS DURATION NUMBER_OF_FRAMES NUMBER_OF_BYTES

Video
ID : 1
Format : AVC
Format/Info : Advanced Video Codec
Format profile : High@L4.1
Format settings, CABAC : Yes
Format settings, ReFrames : 12 frames
Codec ID : V_MPEG4/ISO/AVC
Duration : 1h 33mn
Bit rate : 1 676 Kbps
Width : 1 024 pixels
Height : 426 pixels
Display aspect ratio : 2.40:1
Frame rate mode : Constant
Frame rate : 24.000 fps
Color space : YUV
Chroma subsampling : 4:2:0
Bit depth : 8 bits
Scan type : Progressive
Bits/(Pixel*Frame) : 0.160
Stream size : 1.06 GiB (63%)
Writing library : x264 core 150 r2833kMod df79067
Encoding settings : cabac=1 / ref=12 / deblock=1:-3:-3 / analyse=0x3:0x113 / me=umh / subme=11 / psy=1 / fade_compensate=0.00 / psy_rd=1.00:0.15 / mixed_ref=1 / me_range=48 / chroma_me=1 / trellis=2 / 8x8dct=1 / cqm=0 / deadzone=21,11 / fast_pskip=0 / chroma_qp_offset=-3 / threads=12 / lookahead_threads=3 / sliced_threads=0 / nr=0 / decimate=0 / interlaced=0 / bluray_compat=0 / constrained_intra=0 / bframes=14 / b_pyramid=2 / b_adapt=2 / b_bias=0 / direct=3 / weightb=1 / open_gop=0 / weightp=2 / keyint=240 / keyint_min=24 / scenecut=40 / intra_refresh=0 / rc_lookahead=40 / rc=2pass / mbtree=0 / bitrate=1676 / ratetol=1.0 / qcomp=0.60 / qpmin=0 / qpmax=69 / qpstep=4 / cplxblur=20.0 / qblur=0.5 / vbv_maxrate=50000 / vbv_bufsize=62500 / nal_hrd=none / filler=0 / ip_ratio=1.40 / pb_ratio=1.30 / aq=1:1.00
Language : English
Default : Yes
Forced : No
Color range : Limited
Color primaries : BT.709
Transfer characteristics : BT.709
Matrix coefficients : BT.709
DURATION : 01:33:53.380000000
NUMBER_OF_FRAMES : 135201
NUMBER_OF_BYTES : 1176113171
_STATISTICS_WRITING_APP : mkvmerge v8.3.0 ('Over the Horizon') 64bit
_STATISTICS_WRITING_DATE_UTC : 2017-09-26 10:14:38
_STATISTICS_TAGS : BPS DURATION NUMBER_OF_FRAMES NUMBER_OF_BYTES

Audio #1
ID : 2
Format : AC-3
Format/Info : Audio Coding 3
Mode extension : CM (complete main)
Format settings, Endianness : Big
Codec ID : A_AC3
Duration : 1h 33mn
Bit rate mode : Constant
Bit rate : 448 Kbps
Channel(s) : 6 channels
Channel positions : Front: L C R, Side: L R, LFE
Sampling rate : 48.0 KHz
Compression mode : Lossy
Stream size : 301 MiB (17%)
Title : AVO М.Яроцкий
Language : Russian
Default : Yes
Forced : Yes

Audio #2
ID : 3
Format : AC-3
Format/Info : Audio Coding 3
Mode extension : CM (complete main)
Format settings, Endianness : Big
Codec ID : A_AC3
Duration : 1h 33mn
Bit rate mode : Constant
Bit rate : 448 Kbps
Channel(s) : 6 channels
Channel positions : Front: L C R, Side: L R, LFE
Sampling rate : 48.0 KHz
Compression mode : Lossy
Stream size : 301 MiB (17%)
Language : English
Default : No
Forced : No

Text
ID : 4
Format : UTF-8
Codec ID : S_TEXT/UTF8
Codec ID/Info : UTF-8 Plain Text
Language : English
Default : No
Forced : No

Menu
00:00:00.000 : en:Chapter 1
00:18:30.833 : en:Chapter 2
00:31:41.875 : en:Chapter 3
00:46:30.333 : en:Chapter 4
01:03:02.500 : en:Chapter 5
01:18:44.791 : en:Chapter 6

скриншот  скриншот  скриншот  скриншот  скриншот  
pb.wtf



Скачать Его собачье дело через торрент http://i95.fastpic.ru/big/2017/0926/c5/67c40de0c231b4f8ccd4db214f539ec5.jpg Скачать, смотреть онлайн Его собачье дело бесплантно в хорошем качестве Год выпуска: 2017Страна: СШАПродолжительность: 01:33:53Жанр: боевик, триллер, комедияПеревод: Авторский (одноголосый, ) Михаил ... 10 10 4
Info! Золотая раздача, скачанное не засчитывается.
Торрент: Зарегистрирован [2017-09-26 15:58] · скачан: 39 раз
Статус: √ проверено
Размер: 1.69 GB
Как cкачать? Как скачать Его собачье дело через торрент | UTorrent

28-11-2019 20:33  

Отключить всю рекламу на сайте

    Дорогой пользователь! Огромная просьба, поблагодарите релизера, оцените раздачу и оставьте свои комментарий, если Вы скачали Его собачье дело через торрент бесплатно!
    Комментировать посты могут только пользователи прошедшие не сложную регистрацию
    Показать сообщения:    

    Его собачье дело через торрент
    Скачать бесплатно Его собачье дело
    Его собачье дело скачать торрент
    Его собачье дело смотреть онлайн
    Cкачать фильм Его собачье дело бесплатно
    Его собачье дело скачать торрент в хорошем качестве
    Его собачье дело смотреть онлайн бесплатно в хорошем качестве


    Вы не можете начинать темы
    Вы не можете отвечать на сообщения
    Вы не можете редактировать свои сообщения
    Вы не можете удалять свои сообщения
    Вы не можете голосовать в опросах
    Вы не можете прикреплять файлы к сообщениям
    Вы можете скачивать файлы