Ссылка на приватное зеркало нашего сайта всего за 1$. Внимание количество ограничено!!!

2 сезон

iTunes

1 сезон

1

iTunes

iTunes

iTunes

1 сезон

RePack

30

ИГРА 18+

pack

ВАЖНО

!!Акция!!

Alien_RageХит недели

RePack

MK11
pack

Забери бонус

RePack

jed

!!Акция!!

Alien_Rage

RePack

fifa19

RePack

Assassins Creed: Odyssey

RePack

NEED FOR SPEED™ PAYBACK

4 сезон

9 сезон

Бесстыжие 9 сезон

Все сериалы

все сериалы на PB.wtf

RePack

FAR CRY 5
  

Вскрытие / Autopsy (Адам Гираш / Adam Gierasch) [2008, ужасы, триллер, детектив, BDRip, 720p] pb.wtf

Вскрытие через торрент pb.wtf

Размер: 4.63 GB | Добавлен: 9 лет назад | Торрент скачан:68 раз
Скачать  

28-10-2010 08:21 Вскрытие Скачать торрент  

Вскрытие / Autopsy
«Evil Cuts Both Ways»

[img=right]http:// СПАМ
Год выпуска: 2008
Страна: США, A-Mark Entertainment
Жанр: ужасы, триллер, детектив
Продолжительность: 01:24:02
Русские субтитры: нет
Перевод:
Профессиональный (двухголосый) (Гланц)

Режиссер: Адам Гираш / Adam Gierasch
Сценарий: Адам Гираш / Adam Gierasch, Джейс Андерсон / Jace Anderson, Ивэн Кац / E.L. Katz
Продюсер: Майкл Арата / Michael Arata, Джон Мартин / John Martin, Майк Марвин / Mike Marvin, Хевн МакКорд / Haven McCord, Брюс МакНалл / Bruce McNall
Оператор: Энтони Б. Ричмонд / Anthony B. Richmond
Композитор: Джозеф Бишара / Joseph Bishara
IMDB: 5.10 (1 550) | КиноПоиск: 5.109 (536)
КиноПоиск.Ru | IMDb.com

В ролях: Роберт Патрик (Dr. David Benway), Джессика Лаундес (Emily), Дженетт Голдстин (Nurse Marian), Майкл Боуэн (Travis), Роберт ЛаСардо (Scott), Росс Кон (Bobby), Эшли Шнайдер (Clare), Аркадий Голубович (Dmitriy), Росс МакКолл (Jude), Грегг Браззел (Man Under Car), Элайджа Харди (Gregory), Кевин М. Уайт (Man in Hallway)

Описание:
После того, как случился несчастный случай на проселочной дороге, Эмилия и ее друзья, думают, что худшее позади, и что за ними уже идет помощь. Но их кошмар только начинается, когда санитарная машина отвозит их в иронически названный Госпиталь Благодарения, место, где клятва Гиппократа идет на пользу выполнения ужасных экспериментов.

Качество: BDRip |[img]http:// СПАМ | Формат: Matroska|
Видео кодек: AVC | Аудио кодек: AC3
Видео: AVC; 1280x720 (16:9); 6802 Kbps; 23,976 fps; 0,301 bpp
Аудио:
Russian; AC3; 48 kHz, 448 Kbps; CBR; 6 ch
English; DTS; 48 kHz, 1509 Kbps; CBR; 6 ch; 24 bit →отдельно

[img]http:// СПАМ | Sample | Еще
Скриншоты:[th]http:// СПАМ
Complete name : pfa-autopsy.720p.mkv
Format : Matroska
File size : 4.25 GiB
Duration : 1h 24mn
Overall bit rate : 7 248 Kbps
Encoded date : UTC 2010-10-25 22:09:18
Writing application : mkvmerge v3.3.0 ('Language') built on Mar 24 2010 14:59:24
Writing library : libebml v0.8.0 libmatroska v0.9.0
Video #1
ID : 1
Format : AVC
Format/Info : Advanced Video Codec
Format profile : High@L4.1
Format settings, CABAC : Yes
Format settings, ReFrames : 5 frames
Muxing mode : Container profile=Unknown@4.1
Codec ID : V_MPEG4/ISO/AVC
Duration : 1h 23mn
Bit rate : 6 656 Kbps
Nominal bit rate : 6 802 Kbps
Width : 1 280 pixels
Height : 720 pixels
Display aspect ratio : 16:9
Frame rate : 23.976 fps
Resolution : 8 bits
Colorimetry : 4:2:0
Scan type : Progressive
Bits/(Pixel*Frame) : 0.301
Stream size : 3.90 GiB (92%)
Writing library : x264 core 107 r1745 4785e8e
Encoding settings : cabac=1 / ref=5 / deblock=1:0:0 / analyse=0x3:0x133 / me=umh / subme=8 / psy=1 / psy_rd=1.00:0.00 / mixed_ref=1 / me_range=16 / chroma_me=1 / trellis=1 / 8x8dct=1 / cqm=0 / deadzone=21,11 / fast_pskip=0 / chroma_qp_offset=-2 / threads=3 / sliced_threads=0 / nr=0 / decimate=1 / interlaced=0 / constrained_intra=0 / bframes=3 / b_pyramid=2 / b_adapt=1 / b_bias=0 / direct=1 / weightb=1 / open_gop=0 / weightp=2 / keyint=250 / keyint_min=23 / scenecut=40 / intra_refresh=0 / rc_lookahead=40 / rc=2pass / mbtree=1 / bitrate=6802 / ratetol=1.0 / qcomp=0.60 / qpmin=10 / qpmax=51 / qpstep=4 / cplxblur=20.0 / qblur=0.5 / ip_ratio=1.40 / aq=1:1.00
Language : English
Audio #2
ID : 2
Format : AC-3
Format/Info : Audio Coding 3
Codec ID : A_AC3
Duration : 1h 24mn
Bit rate mode : Constant
Bit rate : 448 Kbps
Channel(s) : 6 channels
Channel positions : Front: L C R, Surround: L R, LFE
Sampling rate : 48.0 KHz
Stream size : 269 MiB (6%)
Title : Glanc
Language : Russian
pb.wtf



Скачать Вскрытие через торрент http://pic.kartinco.top/images/6/gbzkm.jpg Скачать фильм Вскрытие через торрент бесплантно в хорошем качестве Описание:После того, как случился несчастный случай на проселочной дороге, Эмилия и ее друзья, думают, что худшее позади, и что за ними уже ... 10 10 1
Info! Золотая раздача, скачанное не засчитывается.
Торрент: Зарегистрирован [2010-10-28 08:21] · скачан: 68 раз
Статус: √ проверено
Размер: 4.63 GB
Как cкачать? Как скачать Вскрытие через торрент | qTorrent

% Раздел Тема Автор DL S | L
Фильмы [HD 720p, 1080p] (Хороший звук DUB, MVO) [ 10.12 GB ] Демон внутри / Вскрытие Джейн Доу / The Autopsy of Jane Doe [2016 BDRip 1080p] MVO [] bober100 Скачать
1 | 0
Фильмы 2016 [DVDrip, WEB-DLRip, HDrip] (DUB, MVO) [ 1.46 GB ] Демон внутри / Вскрытие Джейн Доу / The Autopsy of Jane Doe [2016 BDRip] многоголосый [] Twi7ter Скачать
2 | 0
Фильмы 2016 [DVDrip, WEB-DLRip, HDrip] (DUB, MVO) [ 1.65 GB ] Демон внутри / Вскрытие Джейн Доу / The Autopsy of Jane Doe [2016 BDRip-AVC] 2xMVO [ + AlexFilm] bober100 Скачать
1 | 0
Фильмы (Blu-ray, BD-Remux, HDDVD) [ 19.65 GB ] Демон внутри / Вскрытие Джейн Доу / The Autopsy of Jane Doe [2016 BD Remux 1080p] MVO [US Transfer] [] bober100 Скачать
1 | 0
Фильмы (WEB-DL 720p, 1080p) [ 3.21 GB ] Демон внутри / Вскрытие Джейн Доу / The Autopsy of Jane Doe [2016 WEB-DL 1080p] многоголосый [AlexFilm] killermax2013 Скачать
1 | 0
Фильмы (HD 720p, 1080p) (48-60 fps) [ 13.06 GB ] Демон внутри / Вскрытие Джейн Доу / The Autopsy of Jane Doe [2016 BDRip 1080p / 60fps] MVO+2xVO sheker187 Скачать
1 | 0
Фильмы 2016 [DVDrip, WEB-DLRip, HDrip] (DUB, MVO) [ 1.42 GB ] Демон внутри / Вскрытие Джейн Доу / The Autopsy of Jane Doe [2016 BDRip] многоголосый [AlexFilm] Twi7ter Скачать
1 | 0

28-11-2019 20:33  

Отключить всю рекламу на сайте

28-10-2010 10:18 Вскрытие Скачать торрент  

а какой проигрыватель нужен?pb.wtf



28-10-2010 10:40 Вскрытие Скачать торрент  

Пушок 416 писал(а):

а какой проигрыватель нужен?

KMPlayer подойдетpb.wtf



    Дорогой пользователь! Огромная просьба, поблагодарите релизера, оцените раздачу и оставьте свои комментарий, если Вы скачали Вскрытие через торрент бесплатно! Внесите свою лепту в развитие PiratBit!
    Комментировать посты могут только пользователи прошедшие не сложную регистрацию
    Показать сообщения:    

    Вскрытие через торрент
    Скачать бесплатно Вскрытие
    Вскрытие скачать торрент
    Вскрытие смотреть онлайн
    Cкачать фильм Вскрытие бесплатно
    Вскрытие скачать торрент в хорошем качестве
    Вскрытие смотреть онлайн бесплатно в хорошем качестве


    Вы не можете начинать темы
    Вы не можете отвечать на сообщения
    Вы не можете редактировать свои сообщения
    Вы не можете удалять свои сообщения
    Вы не можете голосовать в опросах
    Вы не можете прикреплять файлы к сообщениям
    Вы можете скачивать файлы