Ссылка на приватное зеркало нашего сайта всего за 1$. Внимание количество ограничено!!!

2 сезон

iTunes

1 сезон

1

2 сезон

2 сезон

iTunes

1 сезон

RePack

30

Ultimate

ВАЖНО

ИГРА 18+

pack

RePack

MK11
pack

Забери бонус

RePack

jed

!!Акция!!

Alien_Rage

RePack

fifa19

RePack

Assassins Creed: Odyssey

RePack

NEED FOR SPEED™ PAYBACK

4 сезон

9 сезон

Бесстыжие 9 сезон

Все сериалы

все сериалы на PB.wtf

RePack

FAR CRY 5
  

Райское озеро / Eden Lake (Джеймс Уоткинс) [2008, Ужасы, триллер, BD Remux 1080p] DUB+AVO+DVO (rus, ukr) pb.wtf

Райское озеро через торрент pb.wtf

Размер: 14.95 GB | Добавлен: 3 года 2 мес. назад | Торрент скачан:29 раз
Скачать  

27-09-2017 06:53 Райское озеро Скачать торрент  

Райское озеро / Eden LakeГод выпуска: 2008
Страна: Великобритания
Жанр: Ужасы, триллер
Продолжительность: 01:30:57
Перевод: Дубляж, профессиональный двухголосый, авторский
Субтитры: Русские, английские

Режиссер: Джеймс Уоткинс

rating

В ролях:

Келли Райлли, Майкл Фассбендер, Джек О`Коннелл, Томас Тургус, Финн Аткинс, Джеймс Берроуз, Том Гилл, Джумэйн Хантер, Шон Дули, Тара Эллис

Описание:

Молодая парочка едет за город, чтобы провести романтический уикенд на берегу Райского озера вдали от людей, в диком лесу. Стив и Дженни планируют пожениться, прожить долго и умереть в один день. Никто из них не думал, что страшная смерть уже близко, и этот день наступит завтра… Шайка тупых и агрессивных подростков, шарившая по лесу в поисках приключений, натыкается на лагерь «молодоженов». Чтобы повеселиться и позлить «взрослых», они крадут их вещи, ломают автомобиль и в конце концов нападают на Стива. Войдя в раж кровавой расправы, они уже не могут остановиться. Дженни спасается бегством, но не в силах оторваться от преследователей, затеявших с ней жестокую игру в кошки-мышки. Сумеет ли она невероятными усилиями вырваться из этого ада и избежать ужасной судьбы Стива?

Качество: BD Remux 1080p

Формат: MKV
Видео кодек: H.264
Аудио кодек: AC3

Видео: 19992 Кбит/с, 1920x1080, 24 кадр/с
Аудио#1: Русский (AC3, 6 ch, 384 Кбит/с) - Дубляж
Аудио#2: Русский (AC3, 6 ch, 448 Кбит/с) - Профессиональный двухголосый
Аудио#3: Русский (AC3, 6 ch, 448 Кбит/с) - Авторский (Чадов)
Аудио#4: Английский (DTS-HD MA, 6 ch, 2062 Кбит/с) - Оригинал
Аудио#5: Украинский (AC3, 2 ch, 192 Кбит/с) - Профессиональный двухголосый (1+1)
скриншот   скриншот   скриншот   скриншот   скриншот   скриншот  

Общее
Уникальный идентификатор : 184100105248055972641581788281217311996 (0x8A8063FAD613CDEDBCBDEB05FC5564FC)
Полное имя : D:\РЕМУКС!!!!!\Райское озеро.BDRemux.mkv
Формат : Matroska
Версия формата : Version 4 / Version 2
Размер файла : 14,9 Гбайт
Продолжительность : 1 ч. 30 м.
Режим общего битрейта : Переменный
Общий поток : 23,5 Мбит/сек
Название фильма : Райское озеро.BDRemux.thx:SPOMOPS
Дата кодирования : UTC 2017-09-27 04:28:49
Программа кодирования : mkvmerge v6.1.0 ('Old Devil') built on Mar 4 2013 09:10:42
Библиотека кодирования : libebml v1.3.0 + libmatroska v1.4.0
Attachments : Eden Lake.jpg

Видео
Идентификатор : 1
Формат : AVC
Формат/Информация : Advanced Video Codec
Профиль формата : High@L4.1
Параметр CABAC формата : Да
Параметр RefFrames формата : 4 кадра
Идентификатор кодека : V_MPEG4/ISO/AVC
Продолжительность : 1 ч. 30 м.
Вид битрейта : Переменный
Максимальный битрейт : 33,0 Мбит/сек
Ширина : 1920 пикселей
Высота : 1080 пикселей
Соотношение сторон : 16:9
Режим частоты кадров : Постоянный
Частота кадров : 24,000 кадра/сек
Цветовое пространство : YUV
Субдискретизация насыщенности : 4:2:0
Битовая глубина : 8 бит
Тип развёртки : Прогрессивная
Default : Да
Forced : Нет
Цветовой диапазон : Limited
Основные цвета : BT.709
Характеристики трансфера : BT.709
Коэффициенты матрицы : BT.709

Аудио #1
Идентификатор : 2
Формат : AC-3
Формат/Информация : Audio Coding 3
Параметр Endianness формата : Big
Идентификатор кодека : A_AC3
Продолжительность : 1 ч. 30 м.
Вид битрейта : Постоянный
Битрейт : 384 Кбит/сек
Каналы : 6 каналов
Расположение каналов : Front: L C R, Side: L R, LFE
Частота : 48,0 КГц
Частота кадров : 31,250 кадров/сек (1536 SPF)
Битовая глубина : 16 бит
Метод сжатия : С потерями
Размер потока : 250 Мбайт (2%)
Заголовок : Русский AC3 384 kbps - дубляж
Язык : Russian
ServiceKind/String : Complete Main
Default : Да
Forced : Нет

Аудио #2
Идентификатор : 3
Формат : AC-3
Формат/Информация : Audio Coding 3
Параметр Endianness формата : Big
Идентификатор кодека : A_AC3
Продолжительность : 1 ч. 30 м.
Вид битрейта : Постоянный
Битрейт : 448 Кбит/сек
Каналы : 6 каналов
Расположение каналов : Front: L C R, Side: L R, LFE
Частота : 48,0 КГц
Частота кадров : 31,250 кадров/сек (1536 SPF)
Битовая глубина : 16 бит
Метод сжатия : С потерями
Размер потока : 291 Мбайт (2%)
Заголовок : AC3, 448 Кбитс, 48 kHz (6 ch) Russian Двухголосый
Язык : Russian
ServiceKind/String : Complete Main
Default : Нет
Forced : Нет

Аудио #3
Идентификатор : 4
Формат : AC-3
Формат/Информация : Audio Coding 3
Параметр Endianness формата : Big
Идентификатор кодека : A_AC3
Продолжительность : 1 ч. 30 м.
Вид битрейта : Постоянный
Битрейт : 448 Кбит/сек
Каналы : 6 каналов
Расположение каналов : Front: L C R, Side: L R, LFE
Частота : 48,0 КГц
Частота кадров : 31,250 кадров/сек (1536 SPF)
Битовая глубина : 16 бит
Метод сжатия : С потерями
Размер потока : 291 Мбайт (2%)
Заголовок : AC3, 448 Кбитс, 48 kHz (6 ch) Russian М.Чадов
Язык : Russian
ServiceKind/String : Complete Main
Default : Нет
Forced : Нет

Аудио #4
Идентификатор : 5
Формат : DTS
Формат/Информация : Digital Theater Systems
Профиль формата : MA / Core
Режим : 16
Параметр Endianness формата : Big
Идентификатор кодека : A_DTS
Продолжительность : 1 ч. 30 м.
Вид битрейта : Переменный / Постоянный
Битрейт : Неизвестно / 1509 Кбит/сек
Каналы : 6 каналов
Расположение каналов : Front: L C R, Side: L R, LFE
Частота : 48,0 КГц
Частота кадров : 93,750 кадра/сек (512 SPF)
Битовая глубина : 16 бит
Метод сжатия : Без потерь / Lossy
Заголовок : DTS-HD ~2062 kbps - оригинал
Язык : English
Default : Нет
Forced : Нет

Аудио #5
Идентификатор : 6
Формат : AC-3
Формат/Информация : Audio Coding 3
Параметр Endianness формата : Big
Идентификатор кодека : A_AC3
Продолжительность : 1 ч. 30 м.
Вид битрейта : Постоянный
Битрейт : 192 Кбит/сек
Каналы : 2 канала
Расположение каналов : Front: L R
Частота : 48,0 КГц
Частота кадров : 31,250 кадров/сек (1536 SPF)
Битовая глубина : 16 бит
Метод сжатия : С потерями
Размер потока : 125 Мбайт (1%)
Заголовок : AC3, 192 Кбитс, 48 kHz (2 ch) Ukrainian Двухголосый, 1+1
Язык : Ukrainian
ServiceKind/String : Complete Main
Default : Нет
Forced : Нет

Текст #1
Идентификатор : 7
Формат : UTF-8
Идентификатор кодека : S_TEXT/UTF8
Идентификатор кодека/Информация : UTF-8 Plain Text
Заголовок : английские
Язык : English
Default : Нет
Forced : Нет

Текст #2
Идентификатор : 8
Формат : UTF-8
Идентификатор кодека : S_TEXT/UTF8
Идентификатор кодека/Информация : UTF-8 Plain Text
Заголовок : английские
Язык : English
Default : Нет
Forced : Нет

Текст #3
Идентификатор : 9
Формат : UTF-8
Идентификатор кодека : S_TEXT/UTF8
Идентификатор кодека/Информация : UTF-8 Plain Text
Заголовок : русские
Язык : Russian
Default : Нет
Forced : Нет

Меню
00:00:00.000 : en:Chapter 1
00:06:49.000 : en:Chapter 2
00:20:38.416 : en:Chapter 3
00:26:03.416 : en:Chapter 4
00:36:19.000 : en:Chapter 5
00:47:31.083 : en:Chapter 6
00:56:03.541 : en:Chapter 7
01:02:51.000 : en:Chapter 8
01:06:56.458 : en:Chapter 9
01:12:45.000 : en:Chapter 10
01:20:52.207 : en:Chapter 11
01:26:29.416 : en:Chapter 12

pb.wtf



Скачать Райское озеро через торрент http://i94.fastpic.ru/big/2017/0608/35/861e02f4935929e8271976215e68b635.jpg Скачать фильм Райское озеро через торрент бесплантно в хорошем качестве Описание: Молодая парочка едет за город, чтобы провести романтический уикенд на берегу Райского озера вдали от людей, в диком лесу. Стив и ... 10 10 4
Торрент: Зарегистрирован [2017-09-27 06:53] · скачан: 29 раз
Статус: √ проверено
Размер: 14.95 GB
Как cкачать? Как скачать Райское озеро через торрент | qTorrent

% Раздел Тема Автор DL S | L
Фильмы (WEB-DL 720p, 1080p) [ 6.13 GB ] Райское озеро / Eden Lake [2008 WEB-DLRip 720p] [Open Matte] Dub + DVO + AVO - KORSAR kisa1980 Скачать
1 | 0
Фильмы [HD 720p, 1080p] (Хороший звук DUB, MVO) [ 4.37 GB ] Райское озеро / Eden Lake [2008 BDRip 720p] rulya74 Скачать
1 | 0
Фильмы 2006-2008 [ 2.18 GB ] Райское озеро / Eden Lake [2008 BDRip-AVC] DUB potroks Скачать
1 | 0
Фильмы 2006-2008 [ 1.7 GB ] Райское озеро / Eden Lake [2008 BDRip] snouman82 Скачать
1 | 0
Фильмы 2006-2008 [ 1.37 GB ] Райское озеро / Eden Lake [2008 DVDRip] frostboy Скачать
1 | 0
Фильмы 2006-2008 [ 744 MB ] Райское озеро / Eden Lake [2008 BDRip] Venxxx Скачать
1 | 0
Фильмы [HD 720p, 1080p] (Хороший звук DUB, MVO) [ 7.54 GB ] Райское озеро / Eden Lake [2008 BDRip] Flint3 Скачать
1 | 0

28-11-2019 20:33  

Отключить всю рекламу на сайте

    Дорогой пользователь! Огромная просьба, поблагодарите релизера, оцените раздачу и оставьте свои комментарий, если Вы скачали Райское озеро через торрент бесплатно! Внесите свою лепту в развитие PiratBit!
    Комментировать посты могут только пользователи прошедшие не сложную регистрацию
    Показать сообщения:    

    Райское озеро через торрент
    Скачать бесплатно Райское озеро
    Райское озеро скачать торрент
    Райское озеро смотреть онлайн
    Cкачать фильм Райское озеро бесплатно
    Райское озеро скачать торрент в хорошем качестве
    Райское озеро смотреть онлайн бесплатно в хорошем качестве


    Вы не можете начинать темы
    Вы не можете отвечать на сообщения
    Вы не можете редактировать свои сообщения
    Вы не можете удалять свои сообщения
    Вы не можете голосовать в опросах
    Вы не можете прикреплять файлы к сообщениям
    Вы можете скачивать файлы