новый адрес
Ссылка на приватное зеркало всего за 1$. Внимание количество ограничено!!!

iTunes

1+1

iTunes

мы

iTunes

1

iTunes

Чернобыль

iTunes

Ральф против интернета

Лицензия

ПШазам

Лицензия

Оно 2

Лицензия

30
pack

Вам бонус

ВАЖНО

!!Акция!!

Alien_RageХит недели

RePack

Resident Evil 21

ИГРА 18+

pack

RePack

jed

!!Акция!!

Alien_Rage

RePack

fifa19

RePack

Assassins Creed: Odyssey

RePack

NEED FOR SPEED™ PAYBACK

3 сезон

9 сезон

Бесстыжие 9 сезон

Все сериалы

все сериалы на PB.wtf

RePack

FAR CRY 5
Ребята, катастрофически не хватает 1900р. для оплаты серверов за Октябрь (всвязи с блокировками трафик упал в 3 раза), 1-2р., выручайте.
  

Тревожное воскресенье (Рудольф Фрунтов) [1983 г., Приключения, драма, DVDRip] pb.wtf

Тревожное воскресенье через торрент pb.wtf

Размер: 1.37 GB | Добавлен: 2 года 1 мес. назад | Торрент скачан:3 раза
Скачать  

27-09-2017 11:36 Тревожное воскресенье Скачать торрент  

Тревожное воскресенье
Год выпуска: 1983
Страна: СССР
Жанр: Приключения, драма
Продолжительность: 01:21:20

Режиссер: Рудольф Фрунтов
Производство: Киностудия Мосфильм

Сценарий: Рудольф Фрунтов, Анатолий Левитов, Борис Медовой



В ролях: Эммануил Виторган, Клара Лучко, Александр Белявский, Сергей Мартынов, Георгий Корольчук, Рубен Симонов, Ольга Катаева, Татьяна Ташкова, Татьяна Божок, Всеволод Сафонов, Даниил Нетребин, Сергей Балабанов, Александр Январев, Виктор Косых, Владимир Литвинов

Описание: На иностранном танкере, стоящем в советском Черноморском порту, вспыхивает пожар. Бригада слесарей-ремонтников оказывается заблокированной в трюме объятого пламенем судна.

Через какое-то мгновение пожар уже имеет поистине феноменальный размах, над городом нависает грозная опасность. Группа спасателей вступает в поединок с огнем и побеждает стихию…

Качество: DVDRip
Формат: AVI
Видео кодек: XviD
Аудио кодек: AC3
Видео: XviD / 640x272 / 25.00 fps / 2073 kbps
Аудио: AC3 / 48.0 KHz / 2 ch / 224 kbps
Релиз от: GeneralFilm
скриншот   скриншот   скриншот   скриншот   скриншот  

General
Complete name : D:\PiratBit\Trevozhnoe.voskresene.1982.DVDRip.Generalfilm.avi
Format : AVI
Format/Info : Audio Video Interleave
File size : 1.37 GiB
Duration : 1 h 21 min
Overall bit rate : 2 401 kb/s
Director : ВАЛЬКИРИЯ для Generalfilm.ru

Video
ID : 0
Format : MPEG-4 Visual
Format profile : Advanced Simple@L5
Format settings, BVOP : 2
Format settings, QPel : No
Format settings, GMC : No warppoints
Format settings, Matrix : Default (H.263)
Muxing mode : Packed bitstream
Codec ID : XVID
Codec ID/Hint : XviD
Duration : 1 h 21 min
Bit rate : 2 073 kb/s
Width : 640 pixels
Height : 272 pixels
Display aspect ratio : 2.35:1
Frame rate : 25.000 FPS
Color space : YUV
Chroma subsampling : 4:2:0
Bit depth : 8 bits
Scan type : Progressive
Compression mode : Lossy
Bits/(Pixel*Frame) : 0.476
Stream size : 1.18 GiB (86%)
Writing library : XviD 1.2.1 (UTC 2008-12-04)

Audio
ID : 1
Format : AC-3
Format/Info : Audio Coding 3
Format settings, Endianness : Big
Codec ID : 2000
Duration : 1 h 21 min
Bit rate mode : Constant
Bit rate : 224 kb/s
Channel(s) : 2 channels
Channel positions : Front: L R
Sampling rate : 48.0 kHz
Frame rate : 31.250 FPS (1536 SPF)
Bit depth : 16 bits
Compression mode : Lossy
Stream size : 131 MiB (9%)
Alignment : Split accross interleaves
Service kind : Complete Main

pb.wtf



Скачать Тревожное воскресенье через торрент http://pic1.kartinco.top/images/11/qdydi.jpg Скачать фильм Тревожное воскресенье через торрент бесплантно в хорошем качестве Описание: На иностранном танкере, стоящем в советском Черноморском порту, вспыхивает пожар. Бригада слесарей-ремонтников оказывается ... 10 10 3
Торрент: Зарегистрирован [2017-09-30 07:04] · скачан: 3 раз
Статус: √ проверено
Размер: 1.37 GB
Как cкачать? Как скачать Тревожное воскресенье через торрент | qTorrent


>> Регистрируемся здесь <<






Отзывы и комментарии о схеме читаем и пишем здесь: ---> Отзывы и комментарии о схеме

Новые благодарочки в телеграм довольных пользователей:
скриншот   скриншот   скриншот   скриншот   скриншот
    Дорогой пользователь! Огромная просьба, поблагодарите релизера, оцените раздачу и оставьте свои комментарий, если Вы скачали Тревожное воскресенье через торрент бесплатно! Внесите свою лепту в развитие PiratBit!
    Комментировать посты могут только пользователи прошедшие не сложную регистрацию
    Показать сообщения:    

    Тревожное воскресенье через торрент
    Скачать бесплатно Тревожное воскресенье
    Тревожное воскресенье скачать торрент
    Тревожное воскресенье смотреть онлайн
    Cкачать фильм Тревожное воскресенье бесплатно
    Тревожное воскресенье скачать торрент в хорошем качестве
    Тревожное воскресенье смотреть онлайн бесплатно в хорошем качестве


    Вы не можете начинать темы
    Вы не можете отвечать на сообщения
    Вы не можете редактировать свои сообщения
    Вы не можете удалять свои сообщения
    Вы не можете голосовать в опросах
    Вы не можете прикреплять файлы к сообщениям
    Вы можете скачивать файлы