Ссылка на приватное зеркало нашего сайта всего за 1$. Внимание количество ограничено!!!

2 сезон

iTunes

1 сезон

1

iTunes

iTunes

iTunes

1 сезон

RePack

30

ИГРА 18+

pack

ВАЖНО

!!Акция!!

Alien_RageХит недели

RePack

MK11
pack

Забери бонус

RePack

jed

!!Акция!!

Alien_Rage

RePack

fifa19

RePack

Assassins Creed: Odyssey

RePack

NEED FOR SPEED™ PAYBACK

4 сезон

9 сезон

Бесстыжие 9 сезон

Все сериалы

все сериалы на PB.wtf

RePack

FAR CRY 5
  

Ментовские войны. Киев / Серии: 1-35 из 36 (Сергей Толкушкин, Андрей Руденко, Сергей Уманец) [2017, Украина, драма, криминал, SATRip by keeper.52] pb.wtf

Ментовские войны. Киев через торрент pb.wtf

Размер: 22.92 GB | Добавлен: 2 года 11 мес. назад | Торрент скачан:11 раз
Скачать  

27-09-2017 15:46 Ментовские войны. Киев Скачать торрент  

Ментовские войны. Киев Год выпуска: 2017
Страна: Украина
Киностудия: "1+1 Продакшн" по заказу телеканала 2+2
Жанр: драма, криминал
Продолжительность: ~ 00:45:00 / серия
Субтитры: нет
Режиссер: Сергей Толкушкин, Андрей Руденко, Сергей Уманец
В ролях: Роман Мацюта, Алексей Смолка, Людмила Барбир, Дарья Трегубова, Сергей Деревянко, Анастасия Гиренкова, Дмитрий Сарансков, Оксана Степчук, Константин Корецкий, Александр Форманчук, Владимир Мельник, Карина Шереверова, Мила Картамышева, Евгений Ламах, Оксана Коляденко

Описание: За расследование запутанных дел берётся лучший оперативник Киева и любимец женщин Виктор Таран. Объявив войну криминальному миру, он переходит дорогу криминальным авторитетам, руководству силовых структур и завистливым коллегам. Оказывается, даже в его сплочённой команде не все разделяют принципы чести и справедливости. Чтобы вывести предателей на чистую воду и восстановить справедливость, непоколебимый оперативник пойдёт на всё. Даже если его собственная жизнь окажется под угрозой...


Качество: SATRip / DVB
Формат: AVI

Видео: 720x400 (16:9), 25.000 fps, XviD ~ 1800 kbps avg, 0.250 bit/pixel
Аудио: 48 kHz, Dolby AC3 2.0 192 kbps

Релиз от:
Внимание! Раздача ведётся путём добавления новых серий; при каждом добавлении создаётся новый торрент-файл. Чтобы начать докачку новой серии, пользователям необходимо сделать следующее:
(1) остановить скачивание;
(2) удалить старый торрент-файл у себя из клиента (старые серии удалять не надо);
(3) скачать новый торрент-файл и запустить его у себя в клиенте вместо старого, при этом указать клиенту путь в старую папку куда и должно происходить скачивание новых серий.
Ваш клиент при этом должен произвести хеширование (проверку) старой папки (если он не производит проверку сам – помогите ему сделать это), и будет докачивать только те серии которых у вас ещё нет. Старые серии при этом не удаляются, а продолжают раздаваться!
Если вы уже удалили старые серии, то предотвратить повторную закачку старых серий можно, отжав галочку в соответствующих местах при запуске нового торрент-файла. Желательно старые серии не удалять как можно дольше, чтобы релизёр не столько продолжал раздавать старые серии, а смог сконцентрироваться на новых.
Общее
Формат : AVI
Формат/Информация : Audio Video Interleave
Размер файла : 677 Мбайт
Продолжительность : 47 м.
Общий поток : 2002 Кбит/сек
Программа кодирования : VirtualDubMod 1.5.10.3 | www.virtualdub-fr.org || (build 2550/release)
Библиотека кодирования : VirtualDubMod build 2550/release

Видео
Идентификатор : 0
Формат : MPEG-4 Visual
Профиль формата : Advanced Simple@L5
Параметр BVOP формата : 1
Параметр QPel формата : Нет
Параметр GMC формата : Без точки перехода
Параметр матрицы формата : Выборочная
Идентификатор кодека : XVID
Идентификатор кодека/Подсказка : XviD
Продолжительность : 47 м.
Битрейт : 1800 Кбит/сек
Ширина : 720 пикселей
Высота : 400 пикселей
Соотношение сторон : 16:9
Частота кадров : 25,000 кадров/сек
Цветовое пространство : YUV
Субдискретизация насыщенности : 4:2:0
Битовая глубина : 8 бит
Тип развёртки : Прогрессивная
Метод сжатия : С потерями
Бит/(Пиксели*Кадры) : 0.250
Размер потока : 608 Мбайт (90%)
Библиотека кодирования : XviD 73

Аудио
Идентификатор : 1
Формат : AC-3
Формат/Информация : Audio Coding 3
Расширение режима : CM (complete main)
Параметр Endianness формата : Big
Идентификатор кодека : 2000
Продолжительность : 47 м.
Вид битрейта : Постоянный
Битрейт : 192 Кбит/сек
Каналы : 2 канала
Расположение каналов : Front: L R
Частота : 48,0 КГц
Битовая глубина : 16 бит
Метод сжатия : С потерями
Размер потока : 64,9 Мбайт (10%)
Выравнивание : Разделение по промежуткам
Продолжительность промежутка : 40 мс. (1,00 видеокадр)
Время предзагрузки промежутка : 500 мс.
Торрент обновлен 28 ноября 2017 года, добавлена 35-я серияpb.wtf



Скачать Ментовские войны. Киев через торрент http://i89.fastpic.ru/big/2017/0927/e8/aadfaa14eac444d412174606d04b70e8.jpg Скачать фильм Ментовские войны. Киев через торрент бесплантно в хорошем качестве Описание: За расследование запутанных дел берётся лучший оперативник Киева и любимец женщин Виктор Таран. Объявив войну криминальному миру, ... 5.1 10 11
Info! Золотая раздача, скачанное не засчитывается.
Торрент: Зарегистрирован [2017-11-28 08:54] · скачан: 11 раз
Статус: √ проверено
Размер: 22.92 GB
Как cкачать? Как скачать Ментовские войны. Киев через торрент | qTorrent

% Раздел Тема Автор DL S | L
Наши сериалы [ 22.92 GB ] Ментовские войны. Киев / Серии: 1-35 из 36 [2017 Украина SATRip-AVC by keeper.52] keeper.52 Скачать
1 | 0


Последний раз редактировалось: keeper.52 (2017-11-28 08:49), всего редактировалось 18 раз(а)

28-11-2019 20:33  

Отключить всю рекламу на сайте

29-09-2017 17:39 Ментовские войны. Киев Скачать торрент  

язык русский или украинский?pb.wtf



13-10-2017 16:06 Ментовские войны. Киев Скачать торрент  

Господи спаси Украину. Не смотрите этот фуфловый плагиат.pb.wtf



13-11-2017 09:51 Ментовские войны. Киев Скачать торрент  

skelet69 писал(а):

язык русский или украинский?

русскийpb.wtf



    Дорогой пользователь! Огромная просьба, поблагодарите релизера, оцените раздачу и оставьте свои комментарий, если Вы скачали Ментовские войны. Киев через торрент бесплатно! Внесите свою лепту в развитие PiratBit!
    Комментировать посты могут только пользователи прошедшие не сложную регистрацию
    Показать сообщения:    

    Ментовские войны. Киев через торрент
    Скачать бесплатно Ментовские войны. Киев
    Ментовские войны. Киев скачать торрент
    Ментовские войны. Киев смотреть онлайн
    Cкачать фильм Ментовские войны. Киев бесплатно
    Ментовские войны. Киев скачать торрент в хорошем качестве
    Ментовские войны. Киев смотреть онлайн бесплатно в хорошем качестве


    Вы не можете начинать темы
    Вы не можете отвечать на сообщения
    Вы не можете редактировать свои сообщения
    Вы не можете удалять свои сообщения
    Вы не можете голосовать в опросах
    Вы не можете прикреплять файлы к сообщениям
    Вы можете скачивать файлы