Ссылка на приватное зеркало нашего сайта всего за 1$. Внимание количество ограничено!!!

2 сезон

iTunes

1 сезон

1

2 сезон

2 сезон

iTunes

1 сезон

RePack

30

Ultimate

ВАЖНО

ИГРА 18+

pack

RePack

MK11
pack

Забери бонус

RePack

jed

!!Акция!!

Alien_Rage

RePack

fifa19

RePack

Assassins Creed: Odyssey

RePack

NEED FOR SPEED™ PAYBACK

4 сезон

9 сезон

Бесстыжие 9 сезон

Все сериалы

все сериалы на PB.wtf

RePack

FAR CRY 5
  

Спиди Гонщик / Speed Racer (Лилли Вачовски, Лана Вачовски) [2008, Фантастика, боевик, семейный, BD Remux 1080p] DUB (rus, ukr) pb.wtf

Спиди Гонщик через торрент pb.wtf

Размер: 17.85 GB | Добавлен: 3 года 2 мес. назад | Торрент скачан:15 раз
Скачать  

27-09-2017 15:54 Спиди Гонщик Скачать торрент  

Спиди Гонщик / Speed Racer
Год выпуска: 2008
Страна: Германия, США, Австралия
Жанр: Фантастика, боевик, семейный
Продолжительность: 02:15:00
Перевод: Дубляж
Субтитры: Русские, английские, украинские

Режиссер: Лилли Вачовски, Лана Вачовски

rating

В ролях:

Эмиль Хирш, Кристина Риччи, Джон Гудмен, Сьюзен Сарандон, Пол Литовски, Скотт Портер, Мэттью Фокс, Кик Гарри, Рэйн, Юй Нань, Кристиан Оливер, Найо Уоллес, Роджер Аллам, Ральф Херфорт, Хироюки Санада

Описание:

Спиди Рейсер (Эмиль Хирш) - один из лучших молодых гонщиков современности. Его болид «Мак 5» всегда первый, что вызывает законный интерес у компании «Ройялтон Индастриз», специализирующейся на производстве гоночных машин и владеющей самой успешной командой в ВГЛ (Всемирная Гоночная Лига). Арнольд Ройялтон (Роджер Эллам) лично приезжает в гости к семье Спиди, чтобы заключить контракт с юным дарованием. Но, узнав о грязном закулисье соревнований, Рейсер отказывается от выгодного предложения, ставя под удар свою карьеру. Те, кто идёт против господина Ройялтона, как правило, погибают прямо на трассе...

Качество: BD Remux 1080p
Формат: MKV
Видео кодек: H.264
Аудио кодек: AC3

Видео: 16,6 Кбит/с, 1920x1080, 23.976 кадр/с
Аудио#1: Английский (AC3, 6 ch, 640 Кбит/с) - Оригинал
Аудио#2: Русский (AC3, 6 ch, 640 Кбит/с) - Дубляж
Аудио#3: Украинский (AC3, 6 ch, 640 Кбит/с) - Дубляж
скриншот   скриншот   скриншот   скриншот   скриншот   скриншот  

Общее
Уникальный идентификатор : 242033628378953207960920203241618111255 (0xB615FB32D4C66091B97CD345AD2F7B17)
Полное имя : D:\РЕМУКС\Спиди - гонщик.BDRemux..mkv
Формат : Matroska
Версия формата : Version 2
Размер файла : 17,9 Гбайт
Продолжительность : 2 ч. 15 м.
Общий поток : 18,9 Мбит/сек
Дата кодирования : UTC 2015-07-14 12:55:10
Программа кодирования : mkvmerge v5.0.1 ('Es ist Sommer') built on Oct 9 2011 11:55:43
Библиотека кодирования : libebml v1.2.2 + libmatroska v1.3.0

Видео
Идентификатор : 1
Формат : VC-1
Профиль формата : Advanced@L3
Идентификатор кодека : V_MS/VFW/FOURCC / WVC1
Идентификатор кодека/Подсказка : Microsoft
Продолжительность : 2 ч. 15 м.
Битрейт : 16,6 Мбит/сек
Ширина : 1920 пикселей
Высота : 1080 пикселей
Соотношение сторон : 16:9
Режим частоты кадров : Постоянный
Частота кадров : 23,976 кадра/сек
Цветовое пространство : YUV
Субдискретизация насыщенности : 4:2:0
Битовая глубина : 8 бит
Тип развёртки : Прогрессивная
Метод сжатия : С потерями
Бит/(Пиксели*Кадры) : 0.335
Размер потока : 15,7 Гбайт (88%)
Default : Да
Forced : Нет

Аудио #1
Идентификатор : 2
Формат : AC-3
Формат/Информация : Audio Coding 3
Расширение режима : CM (complete main)
Параметр Endianness формата : Big
Идентификатор кодека : A_AC3
Продолжительность : 2 ч. 15 м.
Вид битрейта : Постоянный
Битрейт : 640 Кбит/сек
Каналы : 6 каналов
Расположение каналов : Front: L C R, Side: L R, LFE
Частота : 48,0 КГц
Битовая глубина : 16 бит
Метод сжатия : С потерями
Размер потока : 618 Мбайт (3%)
Заголовок : Оригинал
Язык : English
Default : Нет
Forced : Нет

Аудио #2
Идентификатор : 3
Формат : AC-3
Формат/Информация : Audio Coding 3
Расширение режима : CM (complete main)
Параметр Endianness формата : Big
Идентификатор кодека : A_AC3
Продолжительность : 2 ч. 15 м.
Вид битрейта : Постоянный
Битрейт : 640 Кбит/сек
Каналы : 6 каналов
Расположение каналов : Front: L C R, Side: L R, LFE
Частота : 48,0 КГц
Битовая глубина : 16 бит
Метод сжатия : С потерями
Размер потока : 618 Мбайт (3%)
Заголовок : Дубляж
Язык : Russian
Default : Да
Forced : Нет

Аудио #3
Идентификатор : 4
Формат : AC-3
Формат/Информация : Audio Coding 3
Расширение режима : CM (complete main)
Параметр Endianness формата : Big
Идентификатор кодека : A_AC3
Продолжительность : 2 ч. 15 м.
Вид битрейта : Постоянный
Битрейт : 640 Кбит/сек
Каналы : 6 каналов
Расположение каналов : Front: L C R, Side: L R, LFE
Частота : 48,0 КГц
Битовая глубина : 16 бит
Метод сжатия : С потерями
Размер потока : 618 Мбайт (3%)
Язык : Ukrainian
Default : Нет
Forced : Нет

Текст #1
Идентификатор : 5
Формат : UTF-8
Идентификатор кодека : S_TEXT/UTF8
Идентификатор кодека/Информация : UTF-8 Plain Text
Заголовок : Русские
Язык : Russian
Default : Нет
Forced : Нет

Текст #2
Идентификатор : 6
Формат : UTF-8
Идентификатор кодека : S_TEXT/UTF8
Идентификатор кодека/Информация : UTF-8 Plain Text
Заголовок : Украинские
Язык : Ukrainian
Default : Нет
Forced : Нет

Текст #3
Идентификатор : 7
Формат : ASS
Идентификатор кодека : S_TEXT/ASS
Идентификатор кодека/Информация : Advanced Sub Station Alpha
Метод сжатия : Без потерь
Заголовок : Английские
Язык : English
Default : Нет
Forced : Нет

Меню
00:00:00.000 : :Chapter 01
00:04:24.180 : :Chapter 02
00:09:14.887 : :Chapter 03
00:15:25.257 : :Chapter 04
00:18:20.182 : :Chapter 05
00:23:12.015 : :Chapter 06
00:28:04.516 : :Chapter 07
00:32:17.268 : :Chapter 08
00:36:18.593 : :Chapter 09
00:39:51.222 : :Chapter 10
00:44:40.803 : :Chapter 11
00:48:55.098 : :Chapter 12
00:52:42.576 : :Chapter 13
00:57:22.355 : :Chapter 14
01:01:10.333 : :Chapter 15
01:04:32.118 : :Chapter 16
01:10:35.648 : :Chapter 17
01:14:38.515 : :Chapter 18
01:18:18.110 : :Chapter 19
01:22:58.223 : :Chapter 20
01:26:39.235 : :Chapter 21
01:30:15.743 : :Chapter 22
01:33:39.530 : :Chapter 23
01:39:09.860 : :Chapter 24
01:45:10.929 : :Chapter 25
01:51:08.495 : :Chapter 26
01:55:01.936 : :Chapter 27
01:59:13.980 : :Chapter 28
02:03:36.742 : :Chapter 29
02:05:16.550 : :Chapter 30
02:15:00.008 : :Chapter 31

pb.wtf



Скачать Спиди Гонщик через торрент http://s011.radikal.ru/i316/1702/bf/964eb43a47d6.png Скачать фильм Спиди Гонщик через торрент бесплантно в хорошем качестве Описание: Спиди Рейсер (Эмиль Хирш) - один из лучших молодых гонщиков современности. Его болид «Мак 5» всегда первый, что вызывает законный ... 10 10 3
Торрент: Зарегистрирован [2017-09-27 15:54] · скачан: 15 раз
Статус: √ проверено
Размер: 17.85 GB
Как cкачать? Как скачать Спиди Гонщик через торрент | qTorrent

% Раздел Тема Автор DL S | L
Фильмы [HD 720p, 1080p] (Хороший звук DUB, MVO) [ 11.82 GB ] Спиди Гонщик / Speed Racer [2008 BDRip 1080p by msltel] DUB msltel Скачать
1 | 0
Фильмы [HD 720p, 1080p] (Хороший звук DUB, MVO) [ 5.09 GB ] Спиди Гонщик / Speed Racer [2008 BDRip 720p by msltel] DUB msltel Скачать
1 | 0
Фильмы [HD 720p, 1080p] (Хороший звук DUB, MVO) [ 4.13 GB ] Спиди Гонщик / Speed Racer [2008 ... BDRip ] M@RCU$ Скачать
1 | 0
Фильмы (BDRip, HDrip-AVC) (48-60 fps) [ 4.93 GB ] Спиди Гонщик / Speed Racer [2008 BDRip-AVC 60fps Dub Original] от R.G. HD-Films Tiberiumsun69 Скачать
5 | 0
Фильмы (HD 720p, 1080p) (48-60 fps) [ 14.63 GB ] Спиди Гонщик / Speed Racer [2008 BDRip 1080p 60fps Dub Original] от R.G. HD-Films Tiberiumsun69 Скачать
2 | 0
Фильмы (HD 720p, 1080p) (48-60 fps) [ 9.1 GB ] Спиди Гонщик / Speed Racer [2008 BDRip 720p 60fps Dub Original] от R.G. HD-Films Tiberiumsun69 Скачать
2 | 0
Фильмы 2006-2008 [ 751 MB ] Спиди Гонщик / Speed Racer [2008 HDRip] ПАРАДОКС Скачать
1 | 0

28-11-2019 20:33  

Отключить всю рекламу на сайте

    Дорогой пользователь! Огромная просьба, поблагодарите релизера, оцените раздачу и оставьте свои комментарий, если Вы скачали Спиди Гонщик через торрент бесплатно! Внесите свою лепту в развитие PiratBit!
    Комментировать посты могут только пользователи прошедшие не сложную регистрацию
    Показать сообщения:    

    Спиди Гонщик через торрент
    Скачать бесплатно Спиди Гонщик
    Спиди Гонщик скачать торрент
    Спиди Гонщик смотреть онлайн
    Cкачать фильм Спиди Гонщик бесплатно
    Спиди Гонщик скачать торрент в хорошем качестве
    Спиди Гонщик смотреть онлайн бесплатно в хорошем качестве


    Вы не можете начинать темы
    Вы не можете отвечать на сообщения
    Вы не можете редактировать свои сообщения
    Вы не можете удалять свои сообщения
    Вы не можете голосовать в опросах
    Вы не можете прикреплять файлы к сообщениям
    Вы можете скачивать файлы