Ссылка на приватное зеркало нашего сайта всего за 1$. Внимание количество ограничено!!!

2 сезон

iTunes

1 сезон

1

2 сезон

2 сезон

iTunes

1 сезон

RePack

30

Новинка

ВАЖНО

ИГРА 18+

pack

RePack

MK11
pack

Забери бонус

RePack

jed

!!Акция!!

Alien_Rage

RePack

fifa19

RePack

Assassins Creed: Odyssey

RePack

NEED FOR SPEED™ PAYBACK

4 сезон

9 сезон

Бесстыжие 9 сезон

Все сериалы

все сериалы на PB.wtf

RePack

FAR CRY 5
  

Люцифер / Lucifer / Сезон: 2 / Серии: 1-18 из 18 (Лен Уайзман) [2016, Фэнтези, драма, ужасы, WEB-DLRip] MVO [NewStudio] pb.wtf

Люцифер через торрент pb.wtf

Размер: 9.1 GB | Добавлен: 3 года 2 мес. назад | Торрент скачан:306 раз
Скачать  

27-09-2017 17:17 Люцифер Скачать торрент  





Информация о фильме:
✦ Название: Люцифер
✦ Оригинальное название: Lucifer
✦ Год выхода: 2016
✦ Жанр: Фэнтези, драма, ужасы
✦ Страна: США
✦ Продолжительность: 18 ~ 00:45:00
✦ Перевод: профессиональный (многоголосый, закадровый)
- NewStudio
✦ Субтитры: | отсутствуют |
✘ полностью отсутствует реклама

✦ Режиссер: Лен Уайзман

✦ В ролях:

Рэйчел Харрис, Лорен Джерман, Кайла Юэлл, Кевин Алехандро, Лесли-Энн Брандт, Д.Б. Вудсайд, Том Эллис, Мэтт Корбой, Скарлет Эстевез


Описание:
Заскучавший и несчастный повелитель преисподней, Люцифер Морнингстар оставил свой престол и отправился в современный Лос-Анджелес, где основал ночной клуб «Lux». Очаровательный, харизматичный и дьявольски привлекательный Люцифер наслаждается своим отдыхом — вином, женщинами и музыкой — пока красивая поп-звезда не оказывается убитой на пороге его клуба…

rating



Информация о файле:

✦ Качество: WEB-DLRip | чистый видеоряд |
✦ Формат: AVI
✦ Видео кодек: XviD
✦ Аудио кодек: MP3

✦ Видео: ~ 1500 kbps | 720x400 (16:9) | 23,976 fps
✦ Аудио: Rus: MP3 | 48.0 KHz | 2 ch | 128 kbps |
✦ Аудио: Eng: MP3 | 48.0 KHz | 2 ch | 128 kbps |
скриншот   скриншот   скриншот  скриншот  

Продолжительность : 43 м. 55 с.
Общий поток : 1768 Кбит/сек
Программа кодирования : VirtualDubMod 1.5.10.3 | www.virtualdub-fr.org || (build 2550/release)
Библиотека кодирования : VirtualDubMod build 2550/release

Видео
Идентификатор : 0
Формат : MPEG-4 Visual
Профиль формата : Advanced Simple@L5
Параметр BVOP формата : 2
Параметр QPel формата : Нет
Параметр GMC формата : Без точки перехода
Параметр матрицы формата : Выборочная
Идентификатор кодека : XVID
Идентификатор кодека/Подсказка : XviD
Продолжительность : 43 м. 55 с.
Битрейт : 1498 Кбит/сек
Ширина : 720 пикселей
Высота : 400 пикселей
Соотношение сторон : 16:9
Частота кадров : 23,976 (23976/1000) кадра/сек
Цветовое пространство : YUV
Субдискретизация насыщенности : 4:2:0
Битовая глубина : 8 бит
Тип развёртки : Прогрессивная
Метод сжатия : С потерями
Бит/(Пиксели*Кадры) : 0.217
Размер потока : 471 Мбайт (85%)
Библиотека кодирования : XviD 73

Аудио #1
Идентификатор : 1
Формат : MPEG Audio
Версия формата : Version 1
Профиль формата : Layer 3
Режим : Joint stereo
Расширение режима : MS Stereo
Идентификатор кодека : 55
Идентификатор кодека/Подсказка : MP3
Продолжительность : 43 м. 55 с.
Вид битрейта : Постоянный
Битрейт : 128 Кбит/сек
Каналы : 2 канала
Частота : 48,0 КГц
Метод сжатия : С потерями
Размер потока : 40,2 Мбайт (7%)
Выравнивание : Соединение по промежуткам
Продолжительность промежутка : 42 мс. (1,00 видеокадр)
Время предзагрузки промежутка : 504 мс.

Аудио #2
Идентификатор : 2
Формат : MPEG Audio
Версия формата : Version 1
Профиль формата : Layer 3
Режим : Joint stereo
Расширение режима : MS Stereo
Идентификатор кодека : 55
Идентификатор кодека/Подсказка : MP3
Продолжительность : 43 м. 55 с.
Вид битрейта : Постоянный
Битрейт : 128 Кбит/сек
Каналы : 2 канала
Частота : 48,0 КГц
Метод сжатия : С потерями
Размер потока : 40,2 Мбайт (7%)
Выравнивание : Соединение по промежуткам
Продолжительность промежутка : 42 мс. (1,00 видеокадр)
Время предзагрузки промежутка : 504 мс.
pb.wtf



Скачать Люцифер через торрент http://i75.fastpic.ru/big/2016/0317/da/875c60f73400beeaa41230bfe33e0cda.gif Скачать фильм Люцифер через торрент бесплантно в хорошем качестве Описание:Заскучавший и несчастный повелитель преисподней, Люцифер Морнингстар оставил свой престол и отправился в современный Лос-Анджелес, ... 9.8 10 6
Торрент: Зарегистрирован [2017-09-27 17:17] · скачан: 306 раз
Статус: √ проверено
Размер: 9.1 GB
Как cкачать? Как скачать Люцифер через торрент | qTorrent

% Раздел Тема Автор DL S | L
Зарубежные сериалы [ 9.76 GB ] Люцифер / Lucifer / Сезон 2 / Серии 1-18 из 18 [2016 WEB-DLRip] MVO [LostFilm] bober100 Скачать
1 | 0
Зарубежные сериалы [ 32.83 GB ] Люцифер / Lucifer / Сезон: 2 / Серии: 1-18 из 18 [2016 WEB-DL 1080p] MVO [NewStudio] bober100 Скачать
1 | 0
Зарубежные сериалы [ 26.65 GB ] Люцифер / Lucifer / Сезон: 2 / Серии 1-18 из 18 [2016 WEB-DL 720p] MVO [NewStudio] GEKADOL Скачать
1 | 0
Зарубежные сериалы [ 41.28 GB ] Люцифер / Lucifer/ Сезон: 2 / Серии 1-18 из 18 [2016 WEB-DL 1080p] 5x [MVO] killermax2013 Скачать
1 | 0
Зарубежные сериалы [ 9.76 GB ] Люцифер / Lucifer/ Сезон: 2 / Серии 1-18 из 18 [2016 WEB-DLRip] [MVO] killermax2013 Скачать
1 | 0

28-11-2019 20:33  

Отключить всю рекламу на сайте

    Дорогой пользователь! Огромная просьба, поблагодарите релизера, оцените раздачу и оставьте свои комментарий, если Вы скачали Люцифер через торрент бесплатно! Внесите свою лепту в развитие PiratBit!
    Комментировать посты могут только пользователи прошедшие не сложную регистрацию
    Показать сообщения:    

    Люцифер через торрент
    Скачать бесплатно Люцифер
    Люцифер скачать торрент
    Люцифер смотреть онлайн
    Cкачать фильм Люцифер бесплатно
    Люцифер скачать торрент в хорошем качестве
    Люцифер смотреть онлайн бесплатно в хорошем качестве


    Вы не можете начинать темы
    Вы не можете отвечать на сообщения
    Вы не можете редактировать свои сообщения
    Вы не можете удалять свои сообщения
    Вы не можете голосовать в опросах
    Вы не можете прикреплять файлы к сообщениям
    Вы можете скачивать файлы