Ссылка на приватное зеркало нашего сайта всего за 1$. Внимание количество ограничено!!!

2 сезон

iTunes

1 сезон

1

2 сезон

2 сезон

iTunes

1 сезон

RePack

30

Ultimate

ВАЖНО

ИГРА 18+

pack

RePack

MK11
pack

Забери бонус

RePack

jed

!!Акция!!

Alien_Rage

RePack

fifa19

RePack

Assassins Creed: Odyssey

RePack

NEED FOR SPEED™ PAYBACK

4 сезон

9 сезон

Бесстыжие 9 сезон

Все сериалы

все сериалы на PB.wtf

RePack

FAR CRY 5
  

Биение пульса / Pulsaciones / Сезон 1 / Серии 1-10 из 10 (Эмилио Арагон, Дэвид Уллоа, Дэвид Виктор) [2016, Триллер, HDTVRip 720p] DVO [Sunshine Studio] pb.wtf

Биение пульса через торрент pb.wtf

Размер: 10.56 GB | Добавлен: 3 года 2 мес. назад | Торрент скачан:28 раз
Скачать  

27-09-2017 18:28 Биение пульса Скачать торрент  

Биение пульса / PulsacionesГод выпуска: 2016
Страна: Испания
Жанр: Триллер
Продолжительность: 10 x ~ 01:05:00
Перевод: Любительский (двухголосый) -
Субтитры: отсутствуют

Режиссер: Эмилио Арагон, Дэвид Уллоа, Дэвид Виктор

rating

В ролях:

Пабло Дерки, Леонор Вотлинг, Ингрид Рубио, Хуан Диего Ботто, Мария Меркадо, Вероника Гойя, Кристофер Даунс, Роман Римар

Описание:

Алекс — известный хирург, который занимается сложными операциями. На его счету невероятное количество спасенных жизней. Однако вскоре ему самому понадобилась помощь. Сердечный приступ поставил крест на его карьере, и другие врачи смогли его спасти. Алексу была произведена экстренная пересадка сердца, и это оказалось роковым событием в его судьбе. Главный герой выжил, но его начинают мучить кошмары прошлого владельца этого сердца. Алексу приходится выяснить, кто же на самом деле носил у себя в груди донорский орган. Ему в расследовании помогает молодая журналистка, у которой неподдельный интерес к этому делу.

Качество: HDTVRip 720p
Формат: MKV
Видео кодек: H.264
Аудио кодек: AC3

Видео: MPEG-4 AVC, ~ 2000 Кбит/с, 1280х720
Аудио: Русский (AC3, 2 ch, 192 Кбит/с)
скриншот   скриншот   скриншот  

Общее
Уникальный идентификатор : 243187118554114002622226606154083495331 (0xB6F422A7B0E5C85481EC413C6A486DA3)
Полное имя : D:\Pulsaciones.S01.720p.SunshineStudio\Pulsaciones.S01E01.720p.SunshineStudio.mkv
Формат : Matroska
Версия формата : Version 4 / Version 2
Размер файла : 1,09 Гбайт
Продолжительность : 1 ч. 11 м.
Общий поток : 2187 Кбит/сек
Дата кодирования : UTC 2017-08-25 07:31:04
Программа кодирования : mkvmerge v8.3.0 ('Over the Horizon') 64bit
Библиотека кодирования : libebml v1.3.1 + libmatroska v1.4.2

Видео
Идентификатор : 1
Формат : AVC
Формат/Информация : Advanced Video Codec
Профиль формата : High@L3.1
Параметр CABAC формата : Да
Параметр ReFrames формата : 4 кадра
Идентификатор кодека : V_MPEG4/ISO/AVC
Продолжительность : 1 ч. 11 м.
Битрейт : 1993 Кбит/сек
Ширина : 1280 пикселей
Высота : 720 пикселей
Соотношение сторон : 16:9
Режим частоты кадров : Постоянный
Частота кадров : 25,000 кадров/сек
Цветовое пространство : YUV
Субдискретизация насыщенности : 4:2:0
Битовая глубина : 8 бит
Тип развёртки : Прогрессивная
Бит/(Пиксели*Кадры) : 0.087
Размер потока : 1017 Мбайт (91%)
Библиотека кодирования : x264 core 146 r2538 121396c
Настройки программы : cabac=1 / ref=1 / deblock=1:0:0 / analyse=0x3:0x113 / me=hex / subme=2 / psy=1 / psy_rd=1.00:0.00 / mixed_ref=0 / me_range=16 / chroma_me=1 / trellis=0 / 8x8dct=1 / cqm=0 / deadzone=21,11 / fast_pskip=1 / chroma_qp_offset=0 / threads=9 / lookahead_threads=3 / sliced_threads=0 / nr=0 / decimate=1 / interlaced=0 / bluray_compat=0 / constrained_intra=0 / bframes=3 / b_pyramid=2 / b_adapt=1 / b_bias=0 / direct=1 / weightb=1 / open_gop=0 / weightp=1 / keyint=250 / keyint_min=25 / scenecut=40 / intra_refresh=0 / rc_lookahead=10 / rc=crf / mbtree=1 / crf=18.0 / qcomp=0.60 / qpmin=0 / qpmax=69 / qpstep=4 / ip_ratio=1.40 / aq=1:1.00
Default : Да
Forced : Нет

Аудио
Идентификатор : 2
Формат : AC-3
Формат/Информация : Audio Coding 3
Расширение режима : CM (complete main)
Параметр Endianness формата : Big
Идентификатор кодека : A_AC3
Продолжительность : 1 ч. 11 м.
Вид битрейта : Постоянный
Битрейт : 192 Кбит/сек
Каналы : 2 канала
Расположение каналов : Front: L R
Частота : 48,0 КГц
Частота кадров : 31,250 кадров/сек (1536 spf)
Метод сжатия : С потерями
Размер потока : 98,0 Мбайт (9%)
Default : Да
Forced : Нет
pb.wtf



Скачать Биение пульса через торрент http://i91.fastpic.ru/big/2017/0825/01/716ad3081b410475821aff3db461f101.jpg Скачать фильм Биение пульса через торрент бесплантно в хорошем качестве Описание: Алекс — известный хирург, который занимается сложными операциями. На его счету невероятное количество спасенных жизней. Однако ... 10 10 4
Торрент: Зарегистрирован [2017-09-27 18:28] · скачан: 28 раз
Статус: √ проверено
Размер: 10.56 GB
Как cкачать? Как скачать Биение пульса через торрент | qTorrent

% Раздел Тема Автор DL S | L
Зарубежные сериалы [ 29.64 GB ] Биение пульса / Pulsaciones / Сезон: 1 / Серии: 1-10 из 10 [2016-2017 BDRip 720p] DVO [ViruseProject] bober100 Скачать
1 | 0

28-11-2019 20:33  

Отключить всю рекламу на сайте

    Дорогой пользователь! Огромная просьба, поблагодарите релизера, оцените раздачу и оставьте свои комментарий, если Вы скачали Биение пульса через торрент бесплатно! Внесите свою лепту в развитие PiratBit!
    Комментировать посты могут только пользователи прошедшие не сложную регистрацию
    Показать сообщения:    

    Биение пульса через торрент
    Скачать бесплатно Биение пульса
    Биение пульса скачать торрент
    Биение пульса смотреть онлайн
    Cкачать фильм Биение пульса бесплатно
    Биение пульса скачать торрент в хорошем качестве
    Биение пульса смотреть онлайн бесплатно в хорошем качестве


    Вы не можете начинать темы
    Вы не можете отвечать на сообщения
    Вы не можете редактировать свои сообщения
    Вы не можете удалять свои сообщения
    Вы не можете голосовать в опросах
    Вы не можете прикреплять файлы к сообщениям
    Вы можете скачивать файлы