Death Stranding+DLC+АВТОАКТИВАЦИЯ

iTunes

iTunes

iTunes

1

iTunes

iTunes

iTunes

iTunes

iTunes

30
pack

$ от Little Big

ВАЖНО

!!Акция!!

Alien_RageХит недели

RePack

Resident Evil 21

ИГРА 18+

pack

RePack

jed

!!Акция!!

Alien_Rage

RePack

fifa19

RePack

Assassins Creed: Odyssey

RePack

NEED FOR SPEED™ PAYBACK

4 сезон

9 сезон

Бесстыжие 9 сезон

Все сериалы

все сериалы на PB.wtf

RePack

FAR CRY 5
  

Человек-паук: Возвращение домой / Spider-Man: Homecoming (Джон Уоттс) [2017, фантастика, боевик, приключения, WEB-DL 720p] [Dub] [Лицензия / iTunes] pb.wtf

Человек-паук: Возвращение домой через торрент pb.wtf

Размер: 4.47 GB | Добавлен: 2 года 9 мес. назад | Торрент скачан:1555 раз
Скачать  

27-09-2017 19:54 Человек-паук: Возвращение домой Скачать торрент  

Человек-паук: Возвращение домой / Spider-Man: Homecoming


Год выпуска: 2017
Выпущено: США
Жанр: фантастика, боевик, приключения
Продолжительность: 02:13:26
Перевод: Профессиональный (полное дублирование) [Лицензия / iTunes]
Субтитры: Русские, украинские

Режиссер: Джон Уоттс

В ролях: Том Холланд, Роберт Дауни мл., Майкл Китон, Мариса Томей, Джон Фавро, Джейкоб Баталон, Зендея, Лора Хэрриер, Тони Револори, Дональд Гловер

Описание: После исторической встречи с командой Мстителей Питер Паркер возвращается домой, стараясь зажить обычной жизнью под опекой своей тёти Мэй. Но теперь за Питером приглядывает ещё кое-что... Тони Старк видел Человека-Паука в деле и должен стать его наставником. Когда новый злодей Стервятник угрожает уничтожить всё, что дорого Питеру, приходит время доказать всем, что такое настоящий супергерой.



Качество: WEB-DL [720p]
Формат: MKV
Видео: AVC, 1280x532, ~3928 kbps avg, 23.976 fps
Аудио: 48 kHz, AC3 Dolby Digital, 6 ch, ~384 kbps - DUB
Аудио: 48 kHz, AC3 Dolby Digital, 6 ch, ~384 kbps - Eng
General
Unique ID : 183085350296699411038789247653169449232 (0x89BCF4B2AF25774A82F61C2EB5B1C910)
Complete name : E:\Spider.Man.Homecoming.2O17.D.WEB-DL.72Op.mkv
Format : Matroska
Format version : Version 2
File size : 4.47 GiB
Duration : 2h 13mn
Overall bit rate : 4 791 Kbps
Encoded date : UTC 2017-09-27 18:04:17
Writing application : mkvmerge v8.3.0 ('Over the Horizon') 64bit
Writing library : libebml v1.3.1 + libmatroska v1.4.2

Video
ID : 1
Format : AVC
Format/Info : Advanced Video Codec
Format profile : Main@L3.1
Format settings, CABAC : No
Format settings, ReFrames : 2 frames
Codec ID : V_MPEG4/ISO/AVC
Duration : 2h 13mn
Bit rate : 3 928 Kbps
Width : 1 280 pixels
Height : 532 pixels
Display aspect ratio : 2.40:1
Frame rate mode : Constant
Frame rate : 23.976 fps
Color space : YUV
Chroma subsampling : 4:2:0
Bit depth : 8 bits
Scan type : Progressive
Bits/(Pixel*Frame) : 0.241
Stream size : 3.66 GiB (82%)
Language : English
Default : Yes
Forced : No
Color range : Limited
Color primaries : BT.709
Transfer characteristics : BT.709
Matrix coefficients : BT.709

Audio #1
ID : 2
Format : AC-3
Format/Info : Audio Coding 3
Mode extension : CM (complete main)
Format settings, Endianness : Big
Codec ID : A_AC3
Duration : 2h 13mn
Bit rate mode : Constant
Bit rate : 384 Kbps
Channel(s) : 6 channels
Channel positions : Front: L C R, Side: L R, LFE
Sampling rate : 48.0 KHz
Compression mode : Lossy
Stream size : 367 MiB (8%)
Language : Russian
Default : Yes
Forced : No

Audio #2
ID : 3
Format : AC-3
Format/Info : Audio Coding 3
Mode extension : CM (complete main)
Format settings, Endianness : Big
Codec ID : A_AC3
Duration : 2h 13mn
Bit rate mode : Constant
Bit rate : 384 Kbps
Channel(s) : 6 channels
Channel positions : Front: L C R, Side: L R, LFE
Sampling rate : 48.0 KHz
Compression mode : Lossy
Stream size : 367 MiB (8%)
Language : English
Default : No
Forced : No

Text #1
ID : 4
Format : UTF-8
Codec ID : S_TEXT/UTF8
Codec ID/Info : UTF-8 Plain Text
Language : Russian
Default : No
Forced : No

Text #2
ID : 5
Format : UTF-8
Codec ID : S_TEXT/UTF8
Codec ID/Info : UTF-8 Plain Text
Language : Ukrainian
Default : No
Forced : No

Menu
00:00:00.000 : en:1
00:05:33.083 : en:2
00:14:23.279 : en:3
00:20:49.999 : en:4
00:26:18.243 : en:5
00:36:26.976 : en:6
00:46:02.926 : en:7
00:54:39.192 : en:8
01:05:09.280 : en:9
01:12:02.276 : en:10
01:20:19.189 : en:11
01:29:40.542 : en:12
01:36:55.894 : en:13
01:44:43.152 : en:14
01:50:30.249 : en:15
01:57:52.566 : en:16
скриншот  скриншот  скриншот  
pb.wtf



Скачать Человек-паук: Возвращение домой через торрент http://i94.fastpic.ru/big/2017/0707/47/aae58975e21a3cf573b26601b7bffb47.jpg Скачать фильм Человек-паук: Возвращение домой через торрент бесплантно в хорошем качестве Описание: После исторической встречи с командой Мстителей Питер Паркер возвращается домой, стараясь зажить обычной жизнью под опекой своей ... 9.8 10 34
Info! Золотая раздача, скачанное не засчитывается.
Торрент: Зарегистрирован [2017-09-27 19:54] · скачан: 1 555 раз
Статус: √ проверено
Размер: 4.47 GB
Как cкачать? Как скачать Человек-паук: Возвращение домой через торрент | qTorrent

% Раздел Тема Автор DL S | L
Ultra HD (UHD: 2K, 4K, 8K) — видео сверхвысокой чёткости [ 43.9 GB ] Человек-паук: Возвращение домой / Spider-Man: Homecoming [2017 UHD BDRemux 2160p] DUB [] [Dolby Vision TV] sheker187 Скачать
1 | 0
Ultra HD (UHD: 2K, 4K, 8K) — видео сверхвысокой чёткости [ 56.23 GB ] Человек-паук: Возвращение домой / Spider-Man: Homecoming [2017 UHD Blu-Ray EUR 2160p] DUB [] [Dolby Vision] sheker187 Скачать
1 | 0
Фильмы [HD 720p, 1080p] (Хороший звук DUB, MVO) [ 7.23 GB ] Человек-паук: Возвращение домой / Spider-Man: Homecoming [2017 BDRip 1080p HEVC ()] Мичман37 Скачать
2 | 0
Фильмы (HD 720p, 1080p) (48-60 fps) [ 3.94 GB ] Человек-паук: Возвращение домой / Spider-Man: Homecoming [2017 BDRip - HEVC 1080p 12 bit 60 FPS] dd2d3 Скачать
3 | 0
Ultra HD (UHD: 2K, 4K, 8K) — видео сверхвысокой чёткости [ 19.51 GB ] Человек-паук: Возвращение домой / Spider-Man: Homecoming [2017 UHD BDRip 2160p] - [] sheker187 Скачать
1 | 0
Фильмы 2017 [DVDrip, WEB-DLRip, HDrip] (DUB, MVO) [ 2.83 GB ] Человек-паук: Возвращение домой / Spider-Man: Homecoming [2017 BDRip-AVC AVO] от ExKinoRay morfyi Скачать
1 | 0
Фильмы (Blu-ray, BD-Remux, HDDVD) [ 27.97 GB ] Человек-паук: Возвращение домой / Spider-Man: Homecoming [2017 BD Remux 1080p] AVO [Живов] +DUB [] bober100 Скачать
1 | 0

28-11-2019 20:33  

Отключить всю рекламу на сайте

27-09-2017 19:59 Человек-паук: Возвращение домой Скачать торрент  

Спасибо!)забираю!)pb.wtf



27-09-2017 20:56 Человек-паук: Возвращение домой Скачать торрент  

блиииннн да когда выйдет full hd сколько можно ждать!!!???pb.wtf



27-09-2017 21:02 Человек-паук: Возвращение домой Скачать торрент  

Ну вот теперь можно и скачать спасибо.pb.wtf



28-09-2017 12:11 Человек-паук: Возвращение домой Скачать торрент  

когда блюрей?pb.wtf



28-09-2017 16:26 Человек-паук: Возвращение домой Скачать торрент  

Худшая часть паука, как по мне, Тоби форевер!))pb.wtf



28-09-2017 17:33 Человек-паук: Возвращение домой Скачать торрент  

TMNT писал(а):

Худшая часть паука, как по мне, Тоби форевер!))

Согласен!pb.wtf



28-09-2017 19:26 Человек-паук: Возвращение домой Скачать торрент  

пока смотрел уснул 2 раза)))pb.wtf



02-10-2017 14:18 Человек-паук: Возвращение домой Скачать торрент  

Это не фильм а идиотизм, мотивация и логика действий персонажей даже по меркам школьника ущербнаpb.wtf



23-10-2017 16:16 Человек-паук: Возвращение домой Скачать торрент  

нормальный фильмpb.wtf



    Дорогой пользователь! Огромная просьба, поблагодарите релизера, оцените раздачу и оставьте свои комментарий, если Вы скачали Человек-паук: Возвращение домой через торрент бесплатно! Внесите свою лепту в развитие PiratBit!
    Комментировать посты могут только пользователи прошедшие не сложную регистрацию
    Показать сообщения:    

    Человек-паук: Возвращение домой через торрент
    Скачать бесплатно Человек-паук: Возвращение домой
    Человек-паук: Возвращение домой скачать торрент
    Человек-паук: Возвращение домой смотреть онлайн
    Cкачать фильм Человек-паук: Возвращение домой бесплатно
    Человек-паук: Возвращение домой скачать торрент в хорошем качестве
    Человек-паук: Возвращение домой смотреть онлайн бесплатно в хорошем качестве


    Вы не можете начинать темы
    Вы не можете отвечать на сообщения
    Вы не можете редактировать свои сообщения
    Вы не можете удалять свои сообщения
    Вы не можете голосовать в опросах
    Вы не можете прикреплять файлы к сообщениям
    Вы можете скачивать файлы