Ссылка на приватное зеркало нашего сайта всего за 1$. Внимание количество ограничено!!!

2 сезон

iTunes

1 сезон

1

2 сезон

2 сезон

iTunes

1 сезон

RePack

30

Новинка

ВАЖНО

ИГРА 18+

pack

RePack

MK11
pack

Забери бонус

RePack

jed

!!Акция!!

Alien_Rage

RePack

fifa19

RePack

Assassins Creed: Odyssey

RePack

NEED FOR SPEED™ PAYBACK

4 сезон

9 сезон

Бесстыжие 9 сезон

Все сериалы

все сериалы на PB.wtf

RePack

FAR CRY 5
  

Детство Шелдона / Юный Шелдон / Young Sheldon / Сезон: 1 / Серии: 1-22 из 22 (Джон Фавро) [2017, Комедия, HDTVRip 720p] MVO [Jaskier] pb.wtf

Детство Шелдона через торрент pb.wtf

Размер: 11.22 GB | Добавлен: 2 года 6 мес. назад | Торрент скачан:20 раз
Скачать  

28-09-2017 04:20 Детство Шелдона Скачать торрент  

Детство Шелдона / Юный Шелдон / Young Sheldon
Год выпуска: 2017
Страна: США
Жанр: Комедия
Продолжительность: ~ 00:22:00
Перевод: Профессиональный (многоголосый) | Jaskier
Субтитры: отсутствуют

Режиссер: Джон Фавро

rating

В ролях:

Марсия Энн Бёррс, Док Фэрроу, Рекс Линн, Уайатт МакКлюр, Брайан Степанек, Мелисса Тэнг, Иэн Армитедж, Лэнс Барбер, Монтана Джордан, Джим Парсонс

Описание:

Приквел к «Теории большого взрыва» расскажет историю ребёнка-гения Шелдона Купера.

Качество: HDTVRip 720p
Формат: MKV
Видео кодек: H.264
Аудио кодек: AC3

Видео: X264, ~ 2600 kbps, 1280x720 (16:9), 23.976 fps
Аудио#1: AC3, 48,0 КГц, 6 ch, 384 kbps - Rus
Аудио#2: AC3, 48,0 КГц, 6 ch, 384 kbps - Eng
скриншот   скриншот   скриншот  

Общее
Уникальный идентификатор : 199982002821549779112422077706854356362 (0x967321FC6126DAE8916DB3B4A24A558A)
Полное имя : D:\Young Sheldon. Season 1 (HDTVRip l 720p l Jaskier)\Young.Sheldon.S01E01.720p.Jaskier.mkv
Формат : Matroska
Версия формата : Version 2
Размер файла : 528 Мбайт
Продолжительность : 21 м. 28 с.
Общий поток : 3436 Кбит/сек
Дата кодирования : UTC 2017-09-27 21:20:22
Программа кодирования : mkvmerge v5.8.0 ('No Sleep / Pillow') built on Sep 2 2012 15:37:04
Библиотека кодирования : libebml v1.2.3 + libmatroska v1.3.0

Видео
Идентификатор : 1
Формат : AVC
Формат/Информация : Advanced Video Codec
Профиль формата : High@L4.1
Параметр CABAC формата : Да
Параметр ReFrames формата : 8 кадров
Идентификатор кодека : V_MPEG4/ISO/AVC
Продолжительность : 21 м. 27 с.
Битрейт : 2600 Кбит/сек
Ширина : 1280 пикселей
Высота : 720 пикселей
Соотношение сторон : 16:9
Режим частоты кадров : Постоянный
Частота кадров : 23,976 (24000/1001) кадра/сек
Цветовое пространство : YUV
Субдискретизация насыщенности : 4:2:0
Битовая глубина : 8 бит
Тип развёртки : Прогрессивная
Бит/(Пиксели*Кадры) : 0.118
Размер потока : 399 Мбайт (76%)
Библиотека кодирования : x264 core 152 r2851 ba24899
Настройки программы : cabac=1 / ref=8 / deblock=1:-2:-2 / analyse=0x3:0x113 / me=umh / subme=9 / psy=1 / psy_rd=1.00:0.00 / mixed_ref=1 / me_range=24 / chroma_me=1 / trellis=2 / 8x8dct=1 / cqm=0 / deadzone=21,11 / fast_pskip=0 / chroma_qp_offset=-2 / threads=12 / lookahead_threads=1 / sliced_threads=0 / nr=0 / decimate=1 / interlaced=0 / bluray_compat=0 / constrained_intra=0 / bframes=5 / b_pyramid=2 / b_adapt=1 / b_bias=0 / direct=3 / weightb=1 / open_gop=0 / weightp=2 / keyint=250 / keyint_min=23 / scenecut=40 / intra_refresh=0 / rc_lookahead=50 / rc=crf / mbtree=1 / crf=18.0 / qcomp=0.60 / qpmin=0 / qpmax=69 / qpstep=4 / ip_ratio=1.40 / aq=1:1.00
Язык : English
Default : Нет
Forced : Нет

Аудио #1
Идентификатор : 2
Формат : AC-3
Формат/Информация : Audio Coding 3
Расширение режима : CM (complete main)
Параметр Endianness формата : Big
Идентификатор кодека : A_AC3
Продолжительность : 21 м. 28 с.
Вид битрейта : Постоянный
Битрейт : 384 Кбит/сек
Каналы : 6 каналов
Расположение каналов : Front: L C R, Side: L R, LFE
Частота : 48,0 КГц
Частота кадров : 31,250 кадров/сек (1536 spf)
Метод сжатия : С потерями
Размер потока : 59,0 Мбайт (11%)
Язык : Russian
Default : Да
Forced : Нет

Аудио #2
Идентификатор : 3
Формат : AC-3
Формат/Информация : Audio Coding 3
Расширение режима : CM (complete main)
Параметр Endianness формата : Big
Идентификатор кодека : A_AC3
Продолжительность : 21 м. 28 с.
Вид битрейта : Постоянный
Битрейт : 384 Кбит/сек
Каналы : 6 каналов
Расположение каналов : Front: L C R, Side: L R, LFE
Частота : 48,0 КГц
Частота кадров : 31,250 кадров/сек (1536 spf)
Метод сжатия : С потерями
Размер потока : 59,0 Мбайт (11%)
Язык : English
Default : Нет
Forced : Нет

Внимание! Раздача ведётся путём добавления новых серий; при каждом добавлении создаётся новый торрент. Чтобы начать докачку новой серии, пользователям необходимо сделать следующее:
(1) остановить скачивание,
(2) удалить старый торрент у себя из клиента (старые серии удалять не надо),
(3) скачать новый торрент и запустить его у себя в клиенте вместо старого, при этом указать клиенту путь в старую папку куда и должно происходить скачивание новых серий.
Ваш клиент при этом должен произвести хеширование (проверку) старой папки (если не производит сам - помогите ему сделать это), и будет докачивать только те серии которых у вас ещё нет. Старые серии при этом не удаляются, а продолжают раздаваться!
Eсли вы уже удалили старые серии, то предотвратить повторную закачку старых серий можно, отжав галочку в соответсвующих местах при запуске нового торрента. По возможности, желательно не удалять старые серии как можно дольше чтобы релизёр не столько продолжал раздавать старые серии, а смог сконцентрироваться на новых.
pb.wtf



Скачать Детство Шелдона через торрент http://i89.fastpic.ru/big/2017/0928/93/82df4ff68363b57a818353676b030393.png Скачать фильм Детство Шелдона через торрент бесплантно в хорошем качестве Описание: Приквел к «Теории большого взрыва» расскажет историю ребёнка-гения Шелдона ... 10 10 5
Торрент: Зарегистрирован [2018-05-16 19:46] · скачан: 20 раз
Статус: √ проверено
Размер: 11.22 GB
Как cкачать? Как скачать Детство Шелдона через торрент | qTorrent

% Раздел Тема Автор DL S | L
Зарубежные сериалы [ 5.3 GB ] Детство Шелдона / Юный Шелдон / Young Sheldon / Сезон: 3 / Серии: 1-8 из 22 [2019 WEB-DL 720p] MVO [NewStudio] bober100 Скачать
1 | 0
Зарубежные сериалы [ 10.29 GB ] Детство Шелдона / Юный Шелдон / Young Sheldon / Сезон: 2 / Серии: 1-22 из 22 [2018 WEB-DL 720p] MVO [Jaskier] bober100 Скачать
1 | 0
Зарубежные сериалы [ 5.21 GB ] Детство Шелдона / Юный Шелдон / Young Sheldon / Сезон: 2 / Серии: 1-22 из 22 [2018 WEB-DLRip] MVO [Jaskier] bober100 Скачать
1 | 0
Зарубежные сериалы [ 14.63 GB ] Детство Шелдона / Юный Шелдон / Young Sheldon / Сезон: 1 / Серии: 1-22 из 22 [2017 WEB-DL 720p] MVO [NewStudio] bober100 Скачать
1 | 0
Зарубежные сериалы [ 6.45 GB ] Детство Шелдона / Юный Шелдон / Young Sheldon / Сезон: 1 / Серии: 1-22 из 22 [2017 WEB-DLRip] MVO [NewStudio] bober100 Скачать
1 | 0
Зарубежные сериалы [ 5.99 GB ] Детство Шелдона / Юный Шелдон / Young Sheldon / Сезон: 1 / Серии: 1-22 из 22 [2017 WEB-DLRip] VO [Кураж-Бамбей] bober100 Скачать
1 | 0
Зарубежные сериалы [ 5.08 GB ] Детство Шелдона / Юный Шелдон / Young Sheldon / Сезон: 1 / Серии: 1-22 из 22 [2017 HDTVRip] MVO [Jaskier] bober100 Скачать
1 | 0

28-11-2019 20:33  

Отключить всю рекламу на сайте

    Дорогой пользователь! Огромная просьба, поблагодарите релизера, оцените раздачу и оставьте свои комментарий, если Вы скачали Детство Шелдона через торрент бесплатно! Внесите свою лепту в развитие PiratBit!
    Комментировать посты могут только пользователи прошедшие не сложную регистрацию
    Показать сообщения:    

    Детство Шелдона через торрент
    Скачать бесплатно Детство Шелдона
    Детство Шелдона скачать торрент
    Детство Шелдона смотреть онлайн
    Cкачать фильм Детство Шелдона бесплатно
    Детство Шелдона скачать торрент в хорошем качестве
    Детство Шелдона смотреть онлайн бесплатно в хорошем качестве


    Вы не можете начинать темы
    Вы не можете отвечать на сообщения
    Вы не можете редактировать свои сообщения
    Вы не можете удалять свои сообщения
    Вы не можете голосовать в опросах
    Вы не можете прикреплять файлы к сообщениям
    Вы можете скачивать файлы