Ссылка на приватное зеркало нашего сайта всего за 1$. Внимание количество ограничено!!!

2 сезон

iTunes

1 сезон

1

iTunes

iTunes

iTunes

1 сезон

RePack

30

ИГРА 18+

pack

ВАЖНО

!!Акция!!

Alien_RageХит недели

RePack

MK11
pack

Забери бонус

RePack

jed

!!Акция!!

Alien_Rage

RePack

fifa19

RePack

Assassins Creed: Odyssey

RePack

NEED FOR SPEED™ PAYBACK

4 сезон

9 сезон

Бесстыжие 9 сезон

Все сериалы

все сериалы на PB.wtf

RePack

FAR CRY 5
  

Части тела / Body Puzzle (Ламберто Бава) [1992, ужасы, триллер, BDRip 720p by msltel] MVO, AVO pb.wtf

Части тела через торрент pb.wtf

Размер: 4.95 GB | Добавлен: 3 года назад | Торрент скачан:29 раз
Скачать  

28-09-2017 08:38 Части тела Скачать торрент  

Название: Части тела
Оригинальное название: Body Puzzle
Год выпуска: 1992
Страна: Италия
Жанр: ужасы, триллер
Продолжительность: 01:38:38
Перевод: профессиональный многоголосый, авторский

Режиссер: Ламберто Бава
В ролях: Джоанна Пакула, Томас Арана, Франсуа Монтагю, Джанни Гарко, Эрика Бланк, Маттео Гаццоло, Сузанна Явиколи, Бруно Кораццари, Урсула фон Бачлер, Себастиано Ло Монако

О фильме: Грант - красивая обеспеченная женщина, к которой судьба явно не благоволит. При очень странных обстоятельствах погибает брат, затем умирает муж Эйб. Долгие месяцы к ней шли по почте письма и фотографии неприличного содержания. И вот, наконец, Трэйси обнаруживает в своём холодильнике только что отрезанное человеческое ухо и, следом, останки выкопанного из могилы тела супруга...



Качество: BDRip 720p
Формат: MKV
Видео: MPEG-4 AVC, 6599 Кбит/с, 1280x694
Аудио 1: русский, AC3, 192 kbps, 2 ch, 48 kHz [профессиональный многоголосый, Студия ИНИС]
Аудио 2: русский, AC3, 192 kbps, 2 ch, 48 kHz [авторский, Андрей Мудров]
Аудио 3: английский, AC3, 192 kbps, 2 ch, 48 kHz [оригинал]
Субтитры 1: русские (на места без перевода)
Субтитры 2: английские
Имеются неименованные главы/чаптеры.
Общее
Уникальный идентификатор : 205560568318379490221559617932952767995 (0x9AA5868005A9A405B4E69442B22A8DFB)
Полное имя : D:\Video\Части тела.1992.BDRip.720p by msltel.mkv
Формат : Matroska
Версия формата : Version 4 / Version 2
Размер файла : 4,95 Гбайт
Продолжительность : 1 ч. 38 м.
Общий поток : 7178 Кбит/сек
Название фильма : Rip by msltel
Дата кодирования : UTC 2017-09-27 13:37:25
Программа кодирования : mkvmerge v8.2.0 ('World of Adventure') 64bit
Библиотека кодирования : libebml v1.3.1 + libmatroska v1.4.2

Видео
Идентификатор : 1
Формат : AVC
Формат/Информация : Advanced Video Codec
Профиль формата : High@L4.1
Параметр CABAC формата : Да
Параметр RefFrames формата : 9 кадров
Идентификатор кодека : V_MPEG4/ISO/AVC
Продолжительность : 1 ч. 38 м.
Битрейт : 6599 Кбит/сек
Ширина : 1280 пикселей
Высота : 694 пикселя
Соотношение сторон : 1,85:1
Режим частоты кадров : Постоянный
Частота кадров : 23,976 (24000/1001) кадра/сек
Цветовое пространство : YUV
Субдискретизация насыщенности : 4:2:0
Битовая глубина : 8 бит
Тип развёртки : Прогрессивная
Бит/(Пиксели*Кадры) : 0.310
Размер потока : 4,55 Гбайт (92%)
Библиотека кодирования : x264 core 146 r2538 121396c
Настройки программы : cabac=1 / ref=9 / deblock=1:-3:-2 / analyse=0x3:0x113 / me=umh / subme=11 / psy=1 / psy_rd=1.00:0.15 / mixed_ref=1 / me_range=32 / chroma_me=1 / trellis=2 / 8x8dct=1 / cqm=0 / deadzone=21,11 / fast_pskip=0 / chroma_qp_offset=-3 / threads=6 / lookahead_threads=1 / sliced_threads=0 / nr=0 / decimate=1 / interlaced=0 / bluray_compat=0 / constrained_intra=0 / bframes=14 / b_pyramid=2 / b_adapt=2 / b_bias=0 / direct=1 / weightb=1 / open_gop=0 / weightp=2 / keyint=230 / keyint_min=23 / scenecut=40 / intra_refresh=0 / rc_lookahead=40 / rc=crf / mbtree=0 / crf=21.6 / qcomp=0.60 / qpmin=0 / qpmax=69 / qpstep=4 / vbv_maxrate=62500 / vbv_bufsize=78125 / crf_max=0.0 / nal_hrd=none / filler=0 / ip_ratio=1.40 / pb_ratio=1.30 / aq=1:1.00
Язык : English
Default : Да
Forced : Нет

Аудио #1
Идентификатор : 2
Формат : AC-3
Формат/Информация : Audio Coding 3
Параметр Endianness формата : Big
Идентификатор кодека : A_AC3
Продолжительность : 1 ч. 38 м.
Вид битрейта : Постоянный
Битрейт : 192 Кбит/сек
Каналы : 2 канала
Расположение каналов : Front: L R
Частота : 48,0 КГц
Частота кадров : 31,250 кадров/сек (1536 SPF)
Битовая глубина : 16 бит
Метод сжатия : С потерями
Размер потока : 135 Мбайт (3%)
Заголовок : MVO.Студия ИНИС
Язык : Russian
ServiceKind/String : Complete Main
Default : Да
Forced : Нет

Аудио #2
Идентификатор : 3
Формат : AC-3
Формат/Информация : Audio Coding 3
Параметр Endianness формата : Big
Идентификатор кодека : A_AC3
Продолжительность : 1 ч. 38 м.
Вид битрейта : Постоянный
Битрейт : 192 Кбит/сек
Каналы : 2 канала
Расположение каналов : Front: L R
Частота : 48,0 КГц
Частота кадров : 31,250 кадров/сек (1536 SPF)
Битовая глубина : 16 бит
Метод сжатия : С потерями
Размер потока : 135 Мбайт (3%)
Заголовок : Андрей Мудров
Язык : Russian
ServiceKind/String : Complete Main
Default : Нет
Forced : Нет

Аудио #3
Идентификатор : 4
Формат : AC-3
Формат/Информация : Audio Coding 3
Параметр Endianness формата : Big
Идентификатор кодека : A_AC3
Продолжительность : 1 ч. 38 м.
Вид битрейта : Постоянный
Битрейт : 192 Кбит/сек
Каналы : 2 канала
Расположение каналов : Front: L R
Частота : 48,0 КГц
Частота кадров : 31,250 кадров/сек (1536 SPF)
Битовая глубина : 16 бит
Метод сжатия : С потерями
Размер потока : 135 Мбайт (3%)
Заголовок : original
Язык : English
ServiceKind/String : Complete Main
Default : Нет
Forced : Нет

Текст #1
Идентификатор : 5
Формат : UTF-8
Идентификатор кодека : S_TEXT/UTF8
Идентификатор кодека/Информация : UTF-8 Plain Text
Продолжительность : 1 м. 30 с.
Битрейт : 49 бит/сек
ElementCount : 12
Размер потока : 566 байт (0%)
Заголовок : русские (отделные места)
Язык : Russian
Default : Да
Forced : Да

Текст #2
Идентификатор : 6
Формат : UTF-8
Идентификатор кодека : S_TEXT/UTF8
Идентификатор кодека/Информация : UTF-8 Plain Text
Продолжительность : 1 ч. 34 м.
Битрейт : 38 бит/сек
ElementCount : 1033
Размер потока : 26,6 Кбайт (0%)
Заголовок : английские
Язык : English
Default : Нет
Forced : Нет

Меню
00:00:00.000 : en:Chapter 01
00:11:52.962 : en:Chapter 02
00:25:03.502 : en:Chapter 03
00:36:22.847 : en:Chapter 04
00:51:17.282 : en:Chapter 05
01:06:15.763 : en:Chapter 06
01:21:47.694 : en:Chapter 07
01:32:15.947 : en:Chapter 08
01:38:36.160 : en:Chapter 09
pb.wtf



Скачать Части тела через торрент http://s018.radikal.ru/i520/1709/1c/9770035ce6e8.jpg Скачать фильм Части тела через торрент бесплантно в хорошем качестве О фильме: Грант - красивая обеспеченная женщина, к которой судьба явно не благоволит. При очень странных обстоятельствах погибает брат, ... 10 10 2
Info! Золотая раздача, скачанное не засчитывается.
Торрент: Зарегистрирован [2017-09-28 08:38] · скачан: 29 раз
Статус: √ проверено
Размер: 4.95 GB
Как cкачать? Как скачать Части тела через торрент | qTorrent

% Раздел Тема Автор DL S | L
Фильмы [HD 720p, 1080p] (Хороший звук DUB, MVO) [ 13.93 GB ] Части тела / Body Puzzle [1992 BDRip 1080p by msltel] MVO AVO msltel Скачать
1 | 0
T Фильмы (Blu-ray, BD-Remux, HDDVD) [ 24.67 GB ] Части тела / Головоломка из тел / Body Puzzle [1992 BD Remux 1080р] MVO+AVO bober100 Скачать
1 | 0

28-11-2019 20:33  

Отключить всю рекламу на сайте

29-09-2017 06:25 Части тела Скачать торрент  

на кинопоиске синопсис "Гомосексуалист Тим Белл теряет своего любовника Абе в мотоциклетной аварии…"pb.wtf



    Дорогой пользователь! Огромная просьба, поблагодарите релизера, оцените раздачу и оставьте свои комментарий, если Вы скачали Части тела через торрент бесплатно! Внесите свою лепту в развитие PiratBit!
    Комментировать посты могут только пользователи прошедшие не сложную регистрацию
    Показать сообщения:    

    Части тела через торрент
    Скачать бесплатно Части тела
    Части тела скачать торрент
    Части тела смотреть онлайн
    Cкачать фильм Части тела бесплатно
    Части тела скачать торрент в хорошем качестве
    Части тела смотреть онлайн бесплатно в хорошем качестве


    Вы не можете начинать темы
    Вы не можете отвечать на сообщения
    Вы не можете редактировать свои сообщения
    Вы не можете удалять свои сообщения
    Вы не можете голосовать в опросах
    Вы не можете прикреплять файлы к сообщениям
    Вы можете скачивать файлы