2 сезон

iTunes

MVO

1

2 сезон

iTunes

iTunes

1 сезон

RePack

30

Новинка

ВАЖНО

ИГРА 18+

pack

RePack

MK11
pack

Легкие деньги

RePack

jed

RePack

fifa19

RePack

RDR2

RePack

NEED FOR SPEED™ PAYBACK

4 сезон

9 сезон

Бесстыжие 9 сезон

Все сериалы

все сериалы на PB.wtf

RePack

FAR CRY 5

Anonymous, добрый вечер, мы не успеваем собрать деньги на оплату серверов за декабрь и январь, помогите нам пожалуйста в это трудное время. В качестве благодарности мы отключим Вам всю рекламу на сайте (укажите свой ник в строку Ваше имя)!

×
  
Magnet ссылка

Человек-паук: Возвращение домой / Spider-Man: Homecoming (Джон Уоттс / Jon Watts) [2017, США, фантастика, боевик, приключения, BDRip-AVC] Dub [Лицензия] pb.wtf

Человек-паук: Возвращение домой через торрент pb.wtf

Раздают: 2 [ 0 KB/s ]
Размер: 2.18 GB | Добавлен: 3 года 2 мес. назад | Торрент скачан:186 раз
Скачать  

28-09-2017 12:47 Человек-паук: Возвращение домой Скачать торрент  

Человек-паук: Возвращение домой
Spider-Man: Homecoming

«Homework can wait. The city can't»


Страна: США
Жанр: фантастика, боевик, приключения

Год выпуска: 2017
Продолжительность: 02:13:28

Перевод: Профессиональный (полное дублирование) [Blu-ray EUR]
Субтитры: русские (форсированные, полные), украинские (форсированные, полные), английские (форсированные, полные, SDH, SDH цветные)
Оригинальная аудиодорожка: английский

Режиссер: Джон Уоттс / Jon Watts

В ролях: Том Холланд, Роберт Дауни мл., Майкл Китон, Мариса Томей, Джон Фавро, Джейкоб Баталон, Зендея, Лора Хэрриер, Тони Револори, Дональд Гловер, Гвинет Пэлтроу, Боким Вудбайн

Описание:
После исторической встречи с командой Мстителей Питер Паркер возвращается домой, стараясь зажить обычной жизнью под опекой своей тёти Мэй. Но теперь за Питером приглядывает ещё кое-что... Тони Старк видел Человека-Паука в деле и должен стать его наставником. Когда новый злодей Стервятник угрожает уничтожить всё, что дорого Питеру, приходит время доказать всем, что такое настоящий супергерой.



Релиз:

Автор рипа: stalkerok | Моя группа

Сэмпл

Качество видео: BDRip-AVC [Spider-Man: Homecoming (2017) BD-Remux - BLUEBIRD]
Формат видео: MKV
Видео кодек: AVC
Аудио кодек: AC3, AAC
Видео: 1576 Кбит/сек, 1034*432 (2,40:1), в 23,976 (24000/1001) кадра/сек, AVC
Аудио #1: русский, 448 Кбит/сек, 48,0 КГц, 6 каналов, AC-3
Аудио #2: английский, 310 Кбит/сек, 48,0 КГц, 6 каналов, AAC (LC)
Навигация по главам: есть

x264 [info]: frame I:1794 Avg QP:16.93 size: 47574
x264 [info]: frame P:45779 Avg QP:19.34 size: 16080
x264 [info]: frame B:144427 Avg QP:21.03 size: 5238

Общее
Уникальный идентификатор : 223261144506857958988209639521606061247 (0xA7F68848E6D8CBDD8212E5A269E64CBF)
Полное имя : M:\!Rips2017\Spider-Man Homecoming\BD\Spider-Man.Homecoming.2017.BDRip-AVC.RUS.ENG.stalkerok.new-team.mkv
Формат : Matroska
Версия формата : Version 4 / Version 2
Размер файла : 2,18 Гбайт
Продолжительность : 2 ч. 13 м.
Общий поток : 2337 Кбит/сек
Название фильма : Spider-Man: Homecoming (2017) (Rip by stalkerok)
Дата кодирования : UTC 2017-10-28 12:34:55
Программа кодирования : mkvmerge v8.6.1 ('Flying') 64bit
Библиотека кодирования : libebml v1.3.3 + libmatroska v1.4.4

Видео
Идентификатор : 1
Формат : AVC
Формат/Информация : Advanced Video Codec
Профиль формата : High@L4.1
Параметр CABAC формата : Да
Параметр ReFrames формата : 14 кадров
Идентификатор кодека : V_MPEG4/ISO/AVC
Продолжительность : 2 ч. 13 м.
Битрейт : 1576 Кбит/сек
Ширина : 1034 пикселя
Высота : 432 пикселя
Соотношение сторон : 2,40:1
Режим частоты кадров : Постоянный
Частота кадров : 23,976 (24000/1001) кадра/сек
Цветовое пространство : YUV
Субдискретизация насыщенности : 4:2:0
Битовая глубина : 8 бит
Тип развёртки : Прогрессивная
Бит/(Пиксели*Кадры) : 0.147
Размер потока : 1,47 Гбайт (67%)
Заголовок : Spider-Man: Homecoming (2017) (Rip by stalkerok)
Библиотека кодирования : x264 core 150 r2833kMod df79067
Настройки программы : cabac=1 / ref=14 / deblock=1:-3:-2 / analyse=0x3:0x133 / me=umh / subme=11 / psy=1 / fade_compensate=0.00 / psy_rd=1.00:0.00 / mixed_ref=1 / me_range=32 / chroma_me=1 / trellis=2 / 8x8dct=1 / cqm=0 / deadzone=21,11 / fast_pskip=0 / chroma_qp_offset=-2 / threads=12 / lookahead_threads=3 / sliced_threads=0 / nr=0 / decimate=1 / interlaced=0 / bluray_compat=0 / constrained_intra=0 / bframes=14 / b_pyramid=2 / b_adapt=2 / b_bias=0 / direct=3 / weightb=1 / open_gop=0 / weightp=2 / keyint=240 / keyint_min=23 / scenecut=40 / intra_refresh=0 / rc_lookahead=60 / rc=crf / mbtree=0 / crf=18.5000 / qcomp=0.65 / qpmin=0 / qpmax=69 / qpstep=4 / vbv_maxrate=50000 / vbv_bufsize=62500 / crf_max=0.0 / nal_hrd=none / filler=0 / ip_ratio=1.35 / pb_ratio=1.25 / aq=3:0.80 / zones=176851,179946,q=32/181238,191999,q=32
Default : Да
Forced : Нет

Аудио #1
Идентификатор : 2
Формат : AC-3
Формат/Информация : Audio Coding 3
Расширение режима : CM (complete main)
Параметр Endianness формата : Big
Идентификатор кодека : A_AC3
Продолжительность : 2 ч. 13 м.
Вид битрейта : Постоянный
Битрейт : 448 Кбит/сек
Каналы : 6 каналов
Расположение каналов : Front: L C R, Side: L R, LFE
Частота : 48,0 КГц
Частота кадров : 31,250 кадров/сек (1536 spf)
Метод сжатия : С потерями
Размер потока : 428 Мбайт (19%)
Язык : Russian
Default : Да
Forced : Нет

Аудио #2
Идентификатор : 3
Формат : AAC
Формат/Информация : Advanced Audio Codec
Профиль формата : LC
Идентификатор кодека : A_AAC
Продолжительность : 2 ч. 13 м.
Битрейт : 310 Кбит/сек
Каналы : 6 каналов
Расположение каналов : Front: L C R, Side: L R, LFE
Частота : 48,0 КГц
Частота кадров : 46,875 кадров/сек (1024 spf)
Метод сжатия : С потерями
Задержка видео : 9 мс.
Размер потока : 296 Мбайт (13%)
Язык : English
Default : Нет
Forced : Нет

Текст #1
Идентификатор : 4
Формат : UTF-8
Идентификатор кодека : S_TEXT/UTF8
Идентификатор кодека/Информация : UTF-8 Plain Text
Продолжительность : 2 ч. 9 м.
Битрейт : 1 бит/сек
Count of elements : 39
Размер потока : 1,82 Кбайт (0%)
Заголовок : Форсированные (вер. Ash61)
Язык : Russian
Default : Да
Forced : Нет

Текст #2
Идентификатор : 5
Формат : UTF-8
Идентификатор кодека : S_TEXT/UTF8
Идентификатор кодека/Информация : UTF-8 Plain Text
Продолжительность : 2 ч. 12 м.
Битрейт : 104 бит/сек
Count of elements : 1826
Размер потока : 102 Кбайт (0%)
Язык : Russian
Default : Нет
Forced : Нет

Текст #3
Идентификатор : 6
Формат : UTF-8
Идентификатор кодека : S_TEXT/UTF8
Идентификатор кодека/Информация : UTF-8 Plain Text
Продолжительность : 2 ч. 0 м.
Битрейт : 1 бит/сек
Count of elements : 26
Размер потока : 1,31 Кбайт (0%)
Заголовок : Форсированные (вер. Ash61)
Язык : Ukrainian
Default : Нет
Forced : Нет

Текст #4
Идентификатор : 7
Формат : UTF-8
Идентификатор кодека : S_TEXT/UTF8
Идентификатор кодека/Информация : UTF-8 Plain Text
Продолжительность : 2 ч. 12 м.
Битрейт : 94 бит/сек
Count of elements : 1821
Размер потока : 92,2 Кбайт (0%)
Язык : Ukrainian
Default : Нет
Forced : Нет

Текст #5
Идентификатор : 8
Формат : UTF-8
Идентификатор кодека : S_TEXT/UTF8
Идентификатор кодека/Информация : UTF-8 Plain Text
Продолжительность : 5 с. 90 мс.
Битрейт : 80 бит/сек
Count of elements : 2
Размер потока : 51,0 байт (0%)
Заголовок : Forced
Язык : English
Default : Нет
Forced : Нет

Текст #6
Идентификатор : 9
Формат : UTF-8
Идентификатор кодека : S_TEXT/UTF8
Идентификатор кодека/Информация : UTF-8 Plain Text
Продолжительность : 2 ч. 12 м.
Битрейт : 69 бит/сек
Count of elements : 1928
Размер потока : 67,6 Кбайт (0%)
Язык : English
Default : Нет
Forced : Нет

Текст #7
Идентификатор : 10
Формат : UTF-8
Идентификатор кодека : S_TEXT/UTF8
Идентификатор кодека/Информация : UTF-8 Plain Text
Продолжительность : 2 ч. 12 м.
Битрейт : 75 бит/сек
Count of elements : 2211
Размер потока : 74,0 Кбайт (0%)
Заголовок : SDH
Язык : English
Default : Нет
Forced : Нет

Текст #8
Идентификатор : 11
Формат : UTF-8
Идентификатор кодека : S_TEXT/UTF8
Идентификатор кодека/Информация : UTF-8 Plain Text
Продолжительность : 2 ч. 12 м.
Битрейт : 92 бит/сек
Count of elements : 2211
Размер потока : 90,3 Кбайт (0%)
Заголовок : SDH Colored
Язык : English
Default : Нет
Forced : Нет

Меню
00:00:00.000 : :1
00:05:34.082 : :2
00:14:24.279 : :3
00:20:50.999 : :4
00:26:19.243 : :5
00:36:27.976 : :6
00:46:03.927 : :7
00:54:40.193 : :8
01:05:10.280 : :9
01:12:03.277 : :10
01:20:20.189 : :11
01:29:41.542 : :12
01:36:56.894 : :13
01:44:44.152 : :14
01:50:31.248 : :15
01:57:53.565 : :16
скриншот   скриншот   скриншот   скриншот   скриншот   скриншот   скриншот  
pb.wtf



Скачать Человек-паук: Возвращение домой через торрент http://i6.imageban.ru/out/2017/09/18/2ff75c0c358795c5946784cc1680714d.png Скачать фильм Человек-паук: Возвращение домой через торрент бесплантно в хорошем качестве Описание:После исторической встречи с командой Мстителей Питер Паркер возвращается домой, стараясь зажить обычной жизнью под опекой своей ... 9.5 10 43
Info! Золотая раздача, скачанное не засчитывается.
Торрент: Зарегистрирован [2017-10-28 13:10] · скачан: 186 раз
Статус: √ проверено
Размер: 2.18 GB
Как cкачать? Как скачать Человек-паук: Возвращение домой через торрент | UTorrent

% Раздел Тема Автор DL S | L
Фильмы (HD 720p, 1080p) (48-60 fps) [ 4.08 GB ] Человек-паук: Возвращение домой / Spider-Man: Homecoming [2017 BDRip 720p / 60 FPS ] от R.G. HD-Films slaventi-69 Скачать
1 | 0
Ultra HD (UHD: 2K, 4K, 8K) — видео сверхвысокой чёткости [ 43.9 GB ] Человек-паук: Возвращение домой / Spider-Man: Homecoming [2017 UHD BDRemux 2160p] DUB [] [Dolby Vision TV] sheker187 Скачать
1 | 0
Ultra HD (UHD: 2K, 4K, 8K) — видео сверхвысокой чёткости [ 56.23 GB ] Человек-паук: Возвращение домой / Spider-Man: Homecoming [2017 UHD Blu-Ray EUR 2160p] DUB [] [Dolby Vision] sheker187 Скачать
1 | 0
Фильмы [HD 720p, 1080p] (Хороший звук DUB, MVO) [ 7.23 GB ] Человек-паук: Возвращение домой / Spider-Man: Homecoming [2017 BDRip 1080p HEVC ()] Мичман37 Скачать
1 | 0
Ultra HD (UHD: 2K, 4K, 8K) — видео сверхвысокой чёткости [ 19.51 GB ] Человек-паук: Возвращение домой / Spider-Man: Homecoming [2017 UHD BDRip 2160p] - [] sheker187 Скачать
1 | 0
Фильмы 2017 [DVDrip, WEB-DLRip, HDrip] (DUB, MVO) [ 2.83 GB ] Человек-паук: Возвращение домой / Spider-Man: Homecoming [2017 BDRip-AVC AVO] от ExKinoRay morfyi Скачать
1 | 0
Фильмы (Blu-ray, BD-Remux, HDDVD) [ 27.97 GB ] Человек-паук: Возвращение домой / Spider-Man: Homecoming [2017 BD Remux 1080p] AVO [Живов] +DUB [] bober100 Скачать
1 | 0


Последний раз редактировалось: sokol_ok (2017-10-28 13:10), всего редактировалось 2 раз(а)

28-11-2019 20:33  

Отключить всю рекламу на сайте

28-09-2017 15:40 Человек-паук: Возвращение домой Скачать торрент  

У всех так тихо звучит?pb.wtf



30-09-2017 07:44 Человек-паук: Возвращение домой Скачать торрент  

komaruka123 писал(а):

У всех так тихо звучит?

да со звуком беда качай другой торрент.pb.wtf



02-10-2017 06:02 Человек-паук: Возвращение домой Скачать торрент  

Всегда тетя Мей была тихой старушкой, здесь же она больная нимфоманка, а так ни че фильмpb.wtf



08-10-2017 17:57 Человек-паук: Возвращение домой Скачать торрент  

Замена на BDRippb.wtf



09-10-2017 14:47 Человек-паук: Возвращение домой Скачать торрент  

Фильм полное Г..НО!! Самый худший фильм про паука... Актерский состав ужасен, только Майкл Китон хорош, остальные отвратительно играют. Сюжет тоже дно... говорящий костюм и гаджеты убили вообще весь фильм, не знаю из какой вселенной это взято, но это была плохая идея! Сам же человек паук в фильме нытик, без костюма Тони Старка он вообще никто, да он и в фильме сам об этом говорит.
Для фонатов человека-паука от 90-ого года рождения советую избегать этот фильм, очень разочаруетесь! Для малолеток подойдет, как раз для их уровня ума...pb.wtf





Последний раз редактировалось: HAPKOMAH (2017-10-12 15:54), всего редактировалось 2 раз(а)

11-10-2017 03:32 Человек-паук: Возвращение домой Скачать торрент  

Бредятина. Детский фильмpb.wtf



28-10-2017 13:10 Человек-паук: Возвращение домой Скачать торрент  

Замена на звук с Blu-ray EURpb.wtf



    Дорогой пользователь! Огромная просьба, поблагодарите релизера, оцените раздачу и оставьте свои комментарий, если Вы скачали Человек-паук: Возвращение домой через торрент бесплатно! Внесите свою лепту в развитие PiratBit!
    Комментировать посты могут только пользователи прошедшие не сложную регистрацию
    Показать сообщения:    

    Человек-паук: Возвращение домой через торрент
    Скачать бесплатно Человек-паук: Возвращение домой
    Человек-паук: Возвращение домой скачать торрент
    Человек-паук: Возвращение домой смотреть онлайн
    Cкачать фильм Человек-паук: Возвращение домой бесплатно
    Человек-паук: Возвращение домой скачать торрент в хорошем качестве
    Человек-паук: Возвращение домой смотреть онлайн бесплатно в хорошем качестве


    Вы не можете начинать темы
    Вы не можете отвечать на сообщения
    Вы не можете редактировать свои сообщения
    Вы не можете удалять свои сообщения
    Вы не можете голосовать в опросах
    Вы не можете прикреплять файлы к сообщениям
    Вы можете скачивать файлы