Ссылка на приватное зеркало нашего сайта всего за 1$. Внимание количество ограничено!!!

2 сезон

iTunes

1 сезон

1

2 сезон

2 сезон

iTunes

1 сезон

RePack

30

Ultimate

ВАЖНО

ИГРА 18+

pack

RePack

MK11
pack

Забери бонус

RePack

jed

!!Акция!!

Alien_Rage

RePack

fifa19

RePack

Assassins Creed: Odyssey

RePack

NEED FOR SPEED™ PAYBACK

4 сезон

9 сезон

Бесстыжие 9 сезон

Все сериалы

все сериалы на PB.wtf

RePack

FAR CRY 5
  

Проповедник / Preacher / Сезон 2 / Серии 1-13 из 13 (Эван Голдберг, Сет Роген) [2017, фантастика, драма, комедия, WEB-DL 1080p] MVO [AlexFilm] pb.wtf

Проповедник через торрент pb.wtf

Размер: 24.81 GB | Добавлен: 3 года 2 мес. назад | Торрент скачан:62 раза
Скачать  

28-09-2017 18:09 Проповедник Скачать торрент  

Проповедник / PreacherГод выпуска: 2017
Страна: США
Жанр: фантастика, драма, экранизация комикса, комедия
Продолжительность: 13 ~ 00:45:00
Перевод: Профессиональный многоголосый -
Субтитры: отсутствуют

Режиссер: Эван Голдберг, Сет Роген, Майкл Словис

rating

В ролях:

Доминик Купер, Том Брук, У. Эрл Браун, Йен Коллетти, Джозеф Гилган, Люси Гриффитс, Джеки Эрл Хейли, Рут Негга, Дерек Уилсон, Анатол Юсеф

Описание:

Проповедник Джесси Кастер по воле случая стал носителем внутри своего естества странного существа по имени Генезис. Это дитя совокупления ангела и демона представляет собой одновременно чистый идеал и квинтэссенцию света, но также сгусток абсолютного зла. Генезис — единственное существо во Вселенной, которое может встать вровень с Богом, если того пожелает, а его носитель автоматически становится самым могущественным существом в материальном мире. И это проповедник Кастер.


Качество: WEB-DL 1080p
Формат: MKV
Видео кодек: H.264
Аудио кодек: AC3

Видео: ~5100 kbps, 1916x1076, 23,976 fps
Аудио#1: RUS: AC3, 48 KHz, 6 ch, 384 kbps
Аудио#2: ENG: AC3, 48 KHz, 6 ch, 384 kbps


Перевод: Константин Кривоногов
Монтаж и сведение звука: Михаил Шорыгин
Роли озвучивали:
Наталья Ланц
Таисия Тришина
Михаил Суслов
Владимир Курдов
Константин Погодаев
Рустам Шайхиев
Кирилл Патрино

скриншот   скриншот   скриншот  

Общее
Уникальный идентификатор : 226975889232520455658095975878681455324 (0xAAC1F75717CC6DD8B49D419011386ADC)
Полное имя : D:\Preacher - Season 2 (AlexFilm) WEB-DL 1080p\Preacher.s02e01.WEB-DL.1080p.Rus.Eng.AlexFilm.mkv
Формат : Matroska
Версия формата : Version 4 / Version 2
Размер файла : 1,86 Гбайт
Продолжительность : 44 м. 29 с.
Общий поток : 5983 Кбит/сек
Дата кодирования : UTC 2017-06-28 09:16:08
Программа кодирования : mkvmerge v6.1.0 ('Old Devil') built on Mar 4 2013 09:10:42
Библиотека кодирования : libebml v1.3.0 + libmatroska v1.4.0

Видео
Идентификатор : 1
Формат : AVC
Формат/Информация : Advanced Video Codec
Профиль формата : High@L4
Параметр CABAC формата : Да
Параметр ReFrames формата : 4 кадра
Идентификатор кодека : V_MPEG4/ISO/AVC
Продолжительность : 44 м. 29 с.
Битрейт : 5096 Кбит/сек
Ширина : 1916 пикселей
Высота : 1076 пикселей
Соотношение сторон : 16:9
Режим частоты кадров : Постоянный
Частота кадров : 23,976 (24000/1001) кадра/сек
Цветовое пространство : YUV
Субдискретизация насыщенности : 4:2:0
Битовая глубина : 8 бит
Тип развёртки : Прогрессивная
Бит/(Пиксели*Кадры) : 0.103
Размер потока : 1,58 Гбайт (85%)
Язык : English
Default : Да
Forced : Нет
Цветовой диапазон : Limited
Основные цвета : BT.709
Характеристики трансфера : BT.709
Коэффициенты матрицы : BT.709

Аудио #1
Идентификатор : 2
Формат : AC-3
Формат/Информация : Audio Coding 3
Расширение режима : CM (complete main)
Параметр Endianness формата : Big
Идентификатор кодека : A_AC3
Продолжительность : 44 м. 29 с.
Вид битрейта : Постоянный
Битрейт : 384 Кбит/сек
Каналы : 6 каналов
Расположение каналов : Front: L C R, Side: L R, LFE
Частота : 48,0 КГц
Частота кадров : 31,250 кадров/сек (1536 spf)
Метод сжатия : С потерями
Задержка видео : -42 мс.
Размер потока : 122 Мбайт (6%)
Заголовок : DD 5.1 AlexFilm
Язык : Russian
Default : Нет
Forced : Нет

Аудио #2
Идентификатор : 3
Формат : AC-3
Формат/Информация : Audio Coding 3
Расширение режима : CM (complete main)
Параметр Endianness формата : Big
Идентификатор кодека : A_AC3
Продолжительность : 44 м. 29 с.
Вид битрейта : Постоянный
Битрейт : 384 Кбит/сек
Каналы : 6 каналов
Расположение каналов : Front: L C R, Side: L R, LFE
Частота : 48,0 КГц
Частота кадров : 31,250 кадров/сек (1536 spf)
Метод сжатия : С потерями
Задержка видео : -42 мс.
Размер потока : 122 Мбайт (6%)
Заголовок : Eng
Язык : English
Default : Нет

pb.wtf



Скачать Проповедник через торрент http://i95.fastpic.ru/big/2017/0703/91/6c0ac40fc4f8562790810c2ff38a2291.jpg Скачать фильм Проповедник через торрент бесплантно в хорошем качестве Описание: Проповедник Джесси Кастер по воле случая стал носителем внутри своего естества странного существа по имени Генезис. Это дитя ... 10 10 3
Info! Золотая раздача, скачанное не засчитывается.
Торрент: Зарегистрирован [2017-09-28 18:09] · скачан: 62 раз
Статус: √ проверено
Размер: 24.81 GB
Как cкачать? Как скачать Проповедник через торрент | qTorrent

% Раздел Тема Автор DL S | L
Зарубежные сериалы [ 7.15 GB ] Проповедник / Preacher / Сезон 2 / Серии 1-13 из 13 [2017 WEBRip] DVO [Кубик в Кубе] bober100 Скачать
1 | 0
Зарубежные сериалы [ 14.64 GB ] Проповедник / Preacher / Сезон 2 / Серии 1-13 из 13 [2017 WEBRip 720p] DVO [Кубик в Кубе] bober100 Скачать
1 | 0
Зарубежные сериалы [ 10.84 GB ] Проповедник / Preacher / Сезон 2 / Серии 1-13 из 13 [2017 HDTVRip 720p] DVO [Susnhine Studio] bober100 Скачать
1 | 0
Зарубежные сериалы [ 12 GB ] Проповедник / Preacher / Сезон 2 / Серии 1-13 из 13 [2017 WEBRip] [DVO] [Кубик в Кубе] + [Sub] killermax2013 Скачать
2 | 0
Зарубежные сериалы [ 18.97 GB ] Проповедник / Preacher / Сезон 2 / Серии 1-13 из 13 [2017 WEBRip 720p] MVO [AlexFilm] bober100 Скачать
1 | 0
R.G.Resident - Сериалы, Видео [ 2.92 GB ] Проповедник / Preacher / Сезон: 2 / Серии 1-5 из 13 [2017 WEB-DLRip-AVC многоголосый [AlexFilm] ] White Smoke Скачать
1 | 0
Зарубежные сериалы [ 7.2 GB ] Проповедник / Preacher / Сезон: 2 / Серии 1-13 из 13 [2016 экранизация комикса WEB-DLRip] [MVO] killermax2013 Скачать
1 | 0

28-11-2019 20:33  

Отключить всю рекламу на сайте

    Дорогой пользователь! Огромная просьба, поблагодарите релизера, оцените раздачу и оставьте свои комментарий, если Вы скачали Проповедник через торрент бесплатно! Внесите свою лепту в развитие PiratBit!
    Комментировать посты могут только пользователи прошедшие не сложную регистрацию
    Показать сообщения:    

    Проповедник через торрент
    Скачать бесплатно Проповедник
    Проповедник скачать торрент
    Проповедник смотреть онлайн
    Cкачать фильм Проповедник бесплатно
    Проповедник скачать торрент в хорошем качестве
    Проповедник смотреть онлайн бесплатно в хорошем качестве


    Вы не можете начинать темы
    Вы не можете отвечать на сообщения
    Вы не можете редактировать свои сообщения
    Вы не можете удалять свои сообщения
    Вы не можете голосовать в опросах
    Вы не можете прикреплять файлы к сообщениям
    Вы можете скачивать файлы