Ссылка на приватное зеркало нашего сайта всего за 1$. Внимание количество ограничено!!!

2 сезон

iTunes

1 сезон

1

2 сезон

2 сезон

iTunes

1 сезон

RePack

30

Ultimate

ВАЖНО

ИГРА 18+

pack

RePack

MK11
pack

Забери бонус

RePack

jed

!!Акция!!

Alien_Rage

RePack

fifa19

RePack

Assassins Creed: Odyssey

RePack

NEED FOR SPEED™ PAYBACK

4 сезон

9 сезон

Бесстыжие 9 сезон

Все сериалы

все сериалы на PB.wtf

RePack

FAR CRY 5
  

Смертельное оружие / Lethal Weapon / Сезон: 1 / Серии: 1-18 из 18 (МакДжи, Стив Бойум) [2016, боевик, триллер, драма, WEB-DLRip] MVO [LostFilm] pb.wtf

Смертельное оружие через торрент pb.wtf

Размер: 15.35 GB | Добавлен: 3 года 1 мес. назад | Торрент скачан:423 раза
Скачать  

29-09-2017 10:57 Смертельное оружие Скачать торрент  



═╬ Смертельное оружие ╬═

Информация о фильме:
✦ Год выхода: 2016
✦ Жанр: боевик, триллер, драма, криминал
✦ Название: Смертельное оружие
✦ Оригинальное название: Lethal Weapon
✦ Режиссер: МакДжи, Стив Бойум

✦ В ролях:

Клейн Кроуфорд, Дэймон Уайанс, Джордана Брюстер, Данте Браун, Джонатан Фернандес, Чандлер Кинни, Кевин Рам, Киша Шарп, Флориана Лима и др.


Описание фильма:

Сюжет сосредоточится на копе из Техаса, который, потеряв жену и ребёнка, перебирается на службу в Лос-Анджелес. Там ему суждено стать напарником уже немолодого детектива, которому из-за недавнего инфаркта врачи прописали избегать стрессов. Но с новым коллегой, буквально лезущим под пули, сделать это будет попросту невозможно.

rating

✦ Страна: США / FOX
✦ Продолжительность: 18 ~ 00:43:00
✦ Перевод: профессиональный (многоголосый, закадровый) -
LostFilm

Информация о файле:
✦ Формат: XviD | Avi
✦ Качество: WEB-DLRip
✦ Видео: ~ 1999 kbps, 720x400
✦ Аудио RU: AC3, 6 ch, 384 kbps
✦ Аудио EN: AC3, 6 ch, 384kbps
✦ Субтитры: отсутствуют


скриншот   скриншот   скриншот  

Общее
Полное имя : C:\Lethal Weapon Season 1 CasStudio.TV\Lethal.Weapon.s01e01.rus.eng.CasStudio.TV.avi
Формат : AVI
Формат/Информация : Audio Video Interleave
Размер файла : 935 Мбайт
Продолжительность : 46 м. 58 с.
Общий поток : 2782 Кбит/сек
Программа кодирования : VirtualDubMod 1.5.10.2 (build 2540/release)
Библиотека кодирования : VirtualDubMod build 2540/release

Видео
Идентификатор : 0
Формат : MPEG-4 Visual
Профиль формата : Advanced Simple@L5
Параметр BVOP формата : 1
Параметр QPel формата : Нет
Параметр GMC формата : Без точки перехода
Параметр матрицы формата : Default (MPEG)
Идентификатор кодека : XVID
Идентификатор кодека/Подсказка : XviD
Продолжительность : 46 м. 58 с.
Битрейт : 2000 Кбит/сек
Ширина : 720 пикселей
Высота : 400 пикселей
Соотношение сторон : 16:9
Частота кадров : 23,976 (23976/1000) кадра/сек
Цветовое пространство : YUV
Субдискретизация насыщенности : 4:2:0
Битовая глубина : 8 бит
Тип развёртки : Прогрессивная
Метод сжатия : С потерями
Бит/(Пиксели*Кадры) : 0.290
Размер потока : 672 Мбайт (72%)
Библиотека кодирования : XviD 73

Аудио #1
Идентификатор : 1
Формат : AC-3
Формат/Информация : Audio Coding 3
Расширение режима : CM (complete main)
Параметр Endianness формата : Big
Идентификатор кодека : 2000
Продолжительность : 46 м. 58 с.
Вид битрейта : Постоянный
Битрейт : 384 Кбит/сек
Каналы : 6 каналов
Расположение каналов : Front: L C R, Side: L R, LFE
Частота : 48,0 КГц
Частота кадров : 31,250 кадров/сек (1536 spf)
Метод сжатия : С потерями
Размер потока : 129 Мбайт (14%)
Выравнивание : Разделение по промежуткам
Продолжительность промежутка : 42 мс. (1,00 видеокадр)
Время предзагрузки промежутка : 500 мс.

Аудио #2
Идентификатор : 2
Формат : AC-3
Формат/Информация : Audio Coding 3
Расширение режима : CM (complete main)
Параметр Endianness формата : Big
Идентификатор кодека : 2000
Продолжительность : 46 м. 58 с.
Вид битрейта : Постоянный
Битрейт : 384 Кбит/сек
Каналы : 6 каналов
Расположение каналов : Front: L C R, Side: L R, LFE
Частота : 48,0 КГц
Частота кадров : 31,250 кадров/сек (1536 spf)
Метод сжатия : С потерями
Размер потока : 129 Мбайт (14%)
Выравнивание : Разделение по промежуткам
Продолжительность промежутка : 42 мс. (1,00 видеокадр)
Время предзагрузки промежутка : 500 мс.
pb.wtf



Скачать Смертельное оружие через торрент http://s014.radikal.ru/i328/1709/73/2e05643bfa6e.png Скачать фильм Смертельное оружие через торрент бесплантно в хорошем качестве Описание фильма:Сюжет сосредоточится на копе из Техаса, который, потеряв жену и ребёнка, перебирается на службу в Лос-Анджелес. Там ему ... 10 10 15
Info! Золотая раздача, скачанное не засчитывается.
Торрент: Зарегистрирован [2017-09-29 10:57] · скачан: 423 раз
Статус: √ проверено
Размер: 15.35 GB
Как cкачать? Как скачать Смертельное оружие через торрент | qTorrent

% Раздел Тема Автор DL S | L
Зарубежные сериалы [ 38.08 GB ] Смертельное оружие / Lethal Weapon / Сезон: 3 / Серии: 1-15 из 15 [2018 WEB-DL 1080p] MVO [LostFilm] bober100 Скачать
1 | 0
Зарубежные сериалы [ 8.09 GB ] Смертельное Оружие / Lethal Weapon / Сезон: 3 / Серии: 1-15 из 15 [2018-2019 WEB-DLRip] [MVO] killermax2013 Скачать
1 | 0
Зарубежные сериалы [ 35.32 GB ] Смертельное оружие / Lethal Weapon / Сезон: 3 / Серии: 1-15 из 15 [2018 WEBRip 1080p] MVO [BaibaKo] bober100 Скачать
1 | 0
Зарубежные сериалы [ 8.24 GB ] Смертельное оружие / Lethal Weapon / Сезон: 3 / Серии: 1-15 из 15 [2018 WEB-DLRip] MVO [Newstudio] bober100 Скачать
1 | 0
Зарубежные сериалы [ 8.52 GB ] Смертельное оружие / Lethal Weapon / Сезон: 3 / Серии: 1-15 из 15 [2018 WEB-DLRip] MVO [LostFilm] bober100 Скачать
1 | 0
Зарубежные сериалы [ 36.92 GB ] Смертельное Оружие / Lethal Weapon / Сезон: 3 / Серии: 1-15 из 15 [2018 WEB-DL 1080p] [MVO] killermax2013 Скачать
1 | 0
Зарубежные сериалы [ 35.74 GB ] Смертельное оружие / Lethal Weapon / Сезон: 3 / Серии: 1-15 из 15 [2018 WEB-DL 1080p] MVO [Jaskier] bober100 Скачать
1 | 0

28-11-2019 20:33  

Отключить всю рекламу на сайте

    Дорогой пользователь! Огромная просьба, поблагодарите релизера, оцените раздачу и оставьте свои комментарий, если Вы скачали Смертельное оружие через торрент бесплатно! Внесите свою лепту в развитие PiratBit!
    Комментировать посты могут только пользователи прошедшие не сложную регистрацию
    Показать сообщения:    

    Смертельное оружие через торрент
    Скачать бесплатно Смертельное оружие
    Смертельное оружие скачать торрент
    Смертельное оружие смотреть онлайн
    Cкачать фильм Смертельное оружие бесплатно
    Смертельное оружие скачать торрент в хорошем качестве
    Смертельное оружие смотреть онлайн бесплатно в хорошем качестве


    Вы не можете начинать темы
    Вы не можете отвечать на сообщения
    Вы не можете редактировать свои сообщения
    Вы не можете удалять свои сообщения
    Вы не можете голосовать в опросах
    Вы не можете прикреплять файлы к сообщениям
    Вы можете скачивать файлы