Всегда рабочее зеркало без VPN и Proxy просто перед .vidak.icu напиши любое слово или цифру, Пример http://g4ed.vidak.icu

MVO

2 сезон

1 сезон

1

1 сезон

iTunes

2 сезон

13

1 сезон

Deluxe

pack

Рекомендуем

Пиратка

30

ВАЖНО

RePack

MK11

RePack

jed

RePack

fifa19

RePack

RDR2

RePack

NEED FOR SPEED™ PAYBACK

Кинопоиск HD

6 сезон

 Острые козырьки 6 сезон

Все сериалы

все сериалы на PB.wtf

RePack

FAR CRY 5

Anonymous, нам критически не хватает 5601 руб. на оплату серверов и переферии за Апрель, помоги нам пожалуйста, вся надежда только на тебя. В благодарность мы отключим тебе всю рекламу на сайте!

×
  
Magnet ссылка

Хэвенхёрст / Havenhurst (Эндрю С. Эрин) [2016, ужасы, триллер, детектив, WEB-DL 720p] DUB [Line] pb.wtf

Хэвенхёрст через торрент pb.wtf

Размер: 2.75 GB | Добавлен: 4 года 7 мес. назад | Торрент скачан:233 раза
Смотреть онлайн Хэвенхёрст | Скачать    Ребята, помогите собрать деньги на оплату серверов!!!

29-09-2017 16:48 Хэвенхёрст Скачать торрент  

Хэвенхёрст / Havenhurst
Год выпуска: 2016
Страна: США
Жанр: ужасы, триллер, детектив
Продолжительность: 01:26:49
Перевод: Дубляж [Line]
Субтитры: отсутствуют

Режиссер: Эндрю С. Эрин

rating

В ролях:

Джули Бенц, Белль Шусе, Джош Стэмберг, Даниэль Харрис, Дуглас Тейт, Мэтт Ласки, Дендри Тейлор, Тоби Хасс, Дженнифер Бланк, Финола Флэнаган

Описание:

Джеки расследует загадочное исчезновение лучшей подруги. Следы ведут в старинное поместье Хэвенхёрст в самом сердце Нью-Йорка. Его стены скрывают много тайн. Требования к постояльцам строгие: сюда очень сложно попасть. Но ещё сложнее - отсюда выбраться.

Качество: WEB-DL 720p
Формат: MKV
Видео кодек: H.264
Аудио кодек: AC3

Видео: 4143 Кбит/с, 1280x536
Аудио#1: Русский, (AC3, 2 ch, 384 Кбит/с)

скриншот   скриншот   скриншот  

Общее
Уникальный идентификатор : 221001632943235801905718216028880328300 (0xA6435DC380B52BCC8EF9BB89FF8B566C)
Полное имя : D:\Havenhurst.2016.D.WEB-DL.72Op_KOSHARA.mkv
Формат : Matroska
Версия формата : Version 2
Размер файла : 2,75 Гбайт
Продолжительность : 1 ч. 26 м.
Режим общего битрейта : Переменный
Общий поток : 4528 Кбит/сек
Дата кодирования : UTC 2017-09-29 10:11:12
Программа кодирования : mkvmerge v8.3.0 ('Over the Horizon') 64bit
Библиотека кодирования : libebml v1.3.1 + libmatroska v1.4.2

Видео
Идентификатор : 1
Формат : AVC
Формат/Информация : Advanced Video Codec
Профиль формата : High@L4.1
Параметр CABAC формата : Да
Параметр ReFrames формата : 12 кадров
Идентификатор кодека : V_MPEG4/ISO/AVC
Продолжительность : 1 ч. 26 м.
Вид битрейта : Переменный
Битрейт : 4143 Кбит/сек
Максимальный битрейт : 4500 Кбит/сек
Ширина : 1280 пикселей
Высота : 536 пикселей
Соотношение сторон : 2,40:1
Режим частоты кадров : Постоянный
Частота кадров : 23,976 (24000/1001) кадра/сек
Стандарт вещания : Component
Цветовое пространство : YUV
Субдискретизация насыщенности : 4:2:0
Битовая глубина : 8 бит
Тип развёртки : Прогрессивная
Бит/(Пиксели*Кадры) : 0.252
Размер потока : 2,51 Гбайт (91%)
Default : Да
Forced : Нет
Цветовой диапазон : Limited
Основные цвета : BT.709
Характеристики трансфера : BT.709
Коэффициенты матрицы : BT.709

Аудио
Идентификатор : 2
Формат : AC-3
Формат/Информация : Audio Coding 3
Расширение режима : CM (complete main)
Параметр Endianness формата : Big
Идентификатор кодека : A_AC3
Продолжительность : 1 ч. 26 м.
Вид битрейта : Постоянный
Битрейт : 384 Кбит/сек
Каналы : 2 канала
Расположение каналов : Front: L R
Частота : 48,0 КГц
Частота кадров : 31,250 кадров/сек (1536 spf)
Метод сжатия : С потерями
Размер потока : 238 Мбайт (8%)
Default : Да
Forced : Нет

pb.wtf



Скачать Хэвенхёрст через торрент http://s018.radikal.ru/i502/1709/bc/1faf96cb08ce.jpg Скачать, смотреть онлайн Хэвенхёрст бесплантно в хорошем качестве Описание: Джеки расследует загадочное исчезновение лучшей подруги. Следы ведут в старинное поместье Хэвенхёрст в самом сердце Нью-Йорка. ... 9.1 10 10
Торрент: Зарегистрирован [2017-09-29 16:48] · скачан: 233 раз
Статус: T временная
Размер: 2.75 GB
Как cкачать? Как скачать Хэвенхёрст через торрент | UTorrent

% Раздел Тема Автор DL S | L
T Релизы по Парсеру [Игры, Сериалы и Фильмы и другое...] [ 3.26 GB ] Хэвенхёрст / Havenhurst [2016 WEB-DL 1080p] DUB [Line] bober100 Скачать
1 | 0
Фильмы с авторской озвучкой [ 1.56 GB ] Хэвенхёрст / Havenhurst [2016 HDRip] AVO [BadBajo] bober100 Скачать
1 | 0
T Фильмы 2016 [DVDrip, WEB-DLRip, HDrip] (DUB, MVO) [ 1.34 GB ] Хэвенхёрст / Havenhurst [2016 WEB-DLRip] DUB [Line] bober100 Скачать
1 | 0


Последний раз редактировалось: bober100 (2017-11-30 08:57), всего редактировалось 1 раз

28-11-2019 20:33  

Отключить всю рекламу на сайте

29-09-2017 17:22 Хэвенхёрст Скачать торрент  

Как фильм?pb.wtf



08-10-2017 17:59 Хэвенхёрст Скачать торрент  

Ерундаpb.wtf



30-11-2017 08:28 Хэвенхёрст Скачать торрент  

Скажите, реклама есть?pb.wtf



30-11-2017 08:58 Хэвенхёрст Скачать торрент  

Irvin писал(а):

Скажите, реклама есть?

Да!pb.wtf



14-12-2017 17:52 Хэвенхёрст Скачать торрент  

    Дорогой пользователь! Огромная просьба, поблагодарите релизера, оцените раздачу и оставьте свои комментарий, если Вы скачали Хэвенхёрст через торрент бесплатно!
    Комментировать посты могут только пользователи прошедшие не сложную регистрацию
    Показать сообщения:    

    Хэвенхёрст через торрент
    Скачать бесплатно Хэвенхёрст
    Хэвенхёрст скачать торрент
    Хэвенхёрст смотреть онлайн
    Cкачать фильм Хэвенхёрст бесплатно
    Хэвенхёрст скачать торрент в хорошем качестве
    Хэвенхёрст смотреть онлайн бесплатно в хорошем качестве


    Вы не можете начинать темы
    Вы не можете отвечать на сообщения
    Вы не можете редактировать свои сообщения
    Вы не можете удалять свои сообщения
    Вы не можете голосовать в опросах
    Вы не можете прикреплять файлы к сообщениям
    Вы можете скачивать файлы