новый адрес
Ссылка на приватное зеркало всего за 1$. Внимание количество ограничено!!!

iTunes

1+1

iTunes

мы

iTunes

1

iTunes

Чернобыль

iTunes

Ральф против интернета

Лицензия

ПШазам

Лицензия

Оно 2

Лицензия

30
pack

Вам бонус

ВАЖНО

!!Акция!!

Alien_RageХит недели

RePack

Resident Evil 21

ИГРА 18+

pack

RePack

jed

!!Акция!!

Alien_Rage

RePack

fifa19

RePack

Assassins Creed: Odyssey

RePack

NEED FOR SPEED™ PAYBACK

3 сезон

9 сезон

Бесстыжие 9 сезон

Все сериалы

все сериалы на PB.wtf

RePack

FAR CRY 5
Ребята, катастрофически не хватает 1900р. для оплаты серверов за Октябрь (всвязи с блокировками трафик упал в 3 раза), 1-2р., выручайте.
  

Красные листья (Владимир Корш-Саблин) [1958, СССР, приключения, история, SATRip от AVP Studio] pb.wtf

Красные листья через торрент pb.wtf

Размер: 746 MB | Добавлен: 2 года 1 мес. назад | Торрент скачан:17 раз
Скачать  

30-09-2017 08:48 Красные листья Скачать торрент  

Красные листья
Страна: СССР
Производство: Беларусьфильм

Жанр: приключения, история
Год выпуска: 1958
Продолжительность: 01:27:46

Перевод: Не требуется
Cубтитры: нет
Оригинальная аудиодорожка: русский

Режиссер: Владимир Корш-Саблин

В ролях:
Эдуардс Павулс, Ия Арепина, Михаил Жаров, Клара Лучко, Евгений Карнаухов, Геннадий Мичурин, Владимир Чобур, Владимир Дедюшко, Ростислав Янковский, Николай Бармин, Здислав Стомма, Степан Бирилло, Константин Адашевский, Сергей Карнович-Валуа...
Об актёрах подробней

Описание:
В основе сюжета — судьба Сергея Притыцкого, по фильму молодого революционера, борца за воссоединение Белоруссии Андрея Метельского. Сергей Притыцкий — один из настоящих героев белорусской истории. Это он в 1936 году прямо в зале Виленского суда, где шел процесс над западнобелорусскими революционерами, привел в исполнение смертный приговор провокатору, на совести которого был арест его товарищей. За что сам жестоко поплатился: тяжелым ранением, арестом, смертным приговором, замененным на пожизненное заключение. Скорее всего, финал того сюжета мог бы стать трагическим. Но пришел 1939 год и с ним освобождение.

Источник: DVB
Качество видео: SATRip
Формат видео: AVI

Видео: 640x480 (4:3), 25 fps, XviD ~ 1050 kbps avg, 0.137 bit/pixel
Аудио: 48 kHz, MP3 2.0, 128 kbps

Раздача от:
Общее
Полное имя : Krasnye.listya.1958.SATRip-745_[New-team]_by_AVP_Studio.avi
Формат : AVI
Формат/Информация : Audio Video Interleave
Размер файла : 746 Мбайт
Продолжительность : 1 ч. 27 м.
Общий поток : 1188 Кбит/сек
Программа кодирования : VirtualDubMod 1.5.10.3 | www.virtualdub-fr.org || (build 2550/release)
Библиотека кодирования : VirtualDubMod build 2550/release

Видео
Идентификатор : 0
Формат : MPEG-4 Visual
Профиль формата : Advanced Simple@L5
Параметр BVOP формата : 1
Параметр QPel формата : Нет
Параметр GMC формата : Без точки перехода
Параметр матрицы формата : Выборочная
Идентификатор кодека : XVID
Идентификатор кодека/Подсказка : XviD
Продолжительность : 1 ч. 27 м.
Битрейт : 1050 Кбит/сек
Ширина : 640 пикселей
Высота : 480 пикселей
Соотношение сторон : 4:3
Частота кадров : 25,000 кадров/сек
Цветовое пространство : YUV
Субдискретизация насыщенности : 4:2:0
Битовая глубина : 8 бит
Тип развёртки : Прогрессивная
Метод сжатия : С потерями
Бит/(Пиксели*Кадры) : 0.137
Размер потока : 659 Мбайт (88%)
Библиотека кодирования : XviD 73

Аудио
Идентификатор : 1
Формат : MPEG Audio
Версия формата : Version 1
Профиль формата : Layer 3
Идентификатор кодека : 55
Идентификатор кодека/Подсказка : MP3
Продолжительность : 1 ч. 27 м.
Вид битрейта : Постоянный
Битрейт : 128 Кбит/сек
Каналы : 2 канала
Частота : 48,0 КГц
Метод сжатия : С потерями
Размер потока : 80,4 Мбайт (11%)
Выравнивание : Соединение по промежуткам
Продолжительность промежутка : 40 мс. (1,00 видеокадр)
Время предзагрузки промежутка : 504 мс.
Библиотека кодирования : LAME3.99r
Настройки программы : -m s -V 4 -q 2 -lowpass 17 -b 128
pb.wtf



Скачать Красные листья через торрент http://s014.radikal.ru/i328/1709/d8/a79121c8a7e3.png Скачать фильм Красные листья через торрент бесплантно в хорошем качестве Описание:В основе сюжета — судьба Сергея Притыцкого, по фильму молодого революционера, борца за воссоединение Белоруссии Андрея ... 5 10 1
Info! Золотая раздача, скачанное не засчитывается.
Торрент: Зарегистрирован [2017-09-30 08:48] · скачан: 17 раз
Статус: √ проверено
Размер: 746 MB
Как cкачать? Как скачать Красные листья через торрент | qTorrent

% Раздел Тема Автор DL S | L
Кино СССР [ 1.09 GB ] Красные листья [1958 СССР история SATRip-AVC от AVP Studio] AVP Studio Скачать
1 | 0
Кино СССР [ 1.09 GB ] Красные листья [1958 СССР история SATRip от AVP Studio] AVP Studio Скачать
1 | 0
    Дорогой пользователь! Огромная просьба, поблагодарите релизера, оцените раздачу и оставьте свои комментарий, если Вы скачали Красные листья через торрент бесплатно! Внесите свою лепту в развитие PiratBit!
    Комментировать посты могут только пользователи прошедшие не сложную регистрацию
    Показать сообщения:    

    Красные листья через торрент
    Скачать бесплатно Красные листья
    Красные листья скачать торрент
    Красные листья смотреть онлайн
    Cкачать фильм Красные листья бесплатно
    Красные листья скачать торрент в хорошем качестве
    Красные листья смотреть онлайн бесплатно в хорошем качестве


    Вы не можете начинать темы
    Вы не можете отвечать на сообщения
    Вы не можете редактировать свои сообщения
    Вы не можете удалять свои сообщения
    Вы не можете голосовать в опросах
    Вы не можете прикреплять файлы к сообщениям
    Вы можете скачивать файлы