Ссылка на приватное зеркало нашего сайта всего за 1$. Внимание количество ограничено!!!

2 сезон

iTunes

1 сезон

1

2 сезон

2 сезон

iTunes

1 сезон

RePack

30

Ultimate

ВАЖНО

ИГРА 18+

pack

RePack

MK11
pack

Забери бонус

RePack

jed

!!Акция!!

Alien_Rage

RePack

fifa19

RePack

Assassins Creed: Odyssey

RePack

NEED FOR SPEED™ PAYBACK

4 сезон

9 сезон

Бесстыжие 9 сезон

Все сериалы

все сериалы на PB.wtf

RePack

FAR CRY 5
  

Стартап / StartUp / Сезон: 2 / Серия: 1-10 из 10 (Бен Кетаи) [2017, Триллер, криминал, [2017, Триллер, криминал, WEBRip] [MVO] (Profix Media) pb.wtf

Стартап через торрент pb.wtf

Размер: 5.38 GB | Добавлен: 3 года 1 мес. назад | Торрент скачан:17 раз
Скачать  

30-09-2017 10:13 Стартап Скачать торрент  

Стартап | StartUp

Год выпуска: 2017
Страна: США
Жанр: Триллер, криминал
Продолжительность: ~ 00:50:00
Перевод: Профессиональный (многоголосый закадровый) *Profix Media*
Субтитры: Нет

Режиссёр: Бен Кетаи

В ролях: Мартин Фриман, Адам Броди, Эди Гатеги, Кристен Ариза, Эшли Хиншоу, Келвин Харрисон и другие

Описание: Нередко хорошая идея, существующая где-то в умах гениального конструктора или стратега не воплощается в реальность из-за того, что нет подходящих ресурсов для ее осуществления. Так и оказывается в этот раз. Cериал рассказывает о трех разных людях, занимающихся реализацией одной и той же идеи. Один из них Фил Раск, который является агентом ФБР. Он расследует преступления в мире финансов. Он знакомится с Ником Талмоном, молодым человеком, который является сыном одного из подозреваемых в ведущемся деле. Тут начинается разворачиваться нешуточная семейная драма, которая переплетается с расследованием.



Автор рипа: JuSSiKa

Качество: WEBRip
Формат: AVI
Видео кодек: XviD
Аудио кодек: MP3
Видео: 720x400, 23.976 fps, XviD build 50 ~1500 kbps avg
Аудио: 48 kHz, MP3, 2 ch, ~128 kbps - MVO
Аудио: 48 kHz, MP3, 2 ch, ~128 kbps - ENG
Полное имя : StartUp.2016.S02.WEBRip.RusEng.Profix.Media\StartUp.2016.S02E02.WEBRip.RusEng.Profix.Media.L.avi
Формат : AVI
Формат/Информация : Audio Video Interleave
Размер файла : 550 Мбайт
Продолжительность : 43 м. 19 с.
Общий поток : 1775 Кбит/сек
Программа кодирования : VirtualDubMod 1.5.10.3 (build 2550/release)
Библиотека кодирования : VirtualDubMod build 2550/release

Видео
Идентификатор : 0
Формат : MPEG-4 Visual
Профиль формата : Advanced Simple@L5
Параметр BVOP формата : 1
Параметр QPel формата : Нет
Параметр GMC формата : Без точки перехода
Параметр матрицы формата : Default (H.263)
Идентификатор кодека : XVID
Идентификатор кодека/Подсказка : XviD
Продолжительность : 43 м. 19 с.
Битрейт : 1505 Кбит/сек
Ширина : 720 пикселей
Высота : 400 пикселей
Соотношение сторон : 16:9
Частота кадров : 23,976 (24000/1001) кадра/сек
Цветовое пространство : YUV
Субдискретизация насыщенности : 4:2:0
Битовая глубина : 8 бит
Тип развёртки : Прогрессивная
Метод сжатия : С потерями
Бит/(Пиксели*Кадры) : 0.218
Размер потока : 466 Мбайт (85%)
Библиотека кодирования : XviD 1.2.1 (UTC 2008-12-04)

Аудио #1
Идентификатор : 1
Формат : MPEG Audio
Версия формата : Version 1
Профиль формата : Layer 3
Режим : Joint stereo
Расширение режима : MS Stereo
Идентификатор кодека : 55
Идентификатор кодека/Подсказка : MP3
Продолжительность : 43 м. 19 с.
Вид битрейта : Постоянный
Битрейт : 128 Кбит/сек
Каналы : 2 канала
Частота : 48,0 КГц
Метод сжатия : С потерями
Размер потока : 39,7 Мбайт (7%)
Выравнивание : Соединение по промежуткам
Продолжительность промежутка : 42 мс. (1,00 видеокадр)
Время предзагрузки промежутка : 504 мс.

Аудио #2
Идентификатор : 2
Формат : MPEG Audio
Версия формата : Version 1
Профиль формата : Layer 3
Режим : Joint stereo
Расширение режима : MS Stereo
Идентификатор кодека : 55
Идентификатор кодека/Подсказка : MP3
Продолжительность : 43 м. 19 с.
Вид битрейта : Постоянный
Битрейт : 128 Кбит/сек
Каналы : 2 канала
Частота : 48,0 КГц
Метод сжатия : С потерями
Размер потока : 39,7 Мбайт (7%)
Выравнивание : Соединение по промежуткам
Продолжительность промежутка : 42 мс. (1,00 видеокадр)
Время предзагрузки промежутка : 504 мс.
скриншот   скриншот   скриншот   скриншот   скриншот  
pb.wtf



Скачать Стартап через торрент http://i91.fastpic.ru/big/2017/1001/40/61d581339700ed83b39653f91efce740.png Скачать фильм Стартап через торрент бесплантно в хорошем качестве Описание: Нередко хорошая идея, существующая где-то в умах гениального конструктора или стратега не воплощается в реальность из-за того, ... 9.6 10 7
Торрент: Зарегистрирован [2017-10-05 14:19] · скачан: 17 раз
Статус: √ проверено
Размер: 5.38 GB
Как cкачать? Как скачать Стартап через торрент | qTorrent

% Раздел Тема Автор DL S | L
Зарубежные сериалы [ 11.63 GB ] Стартап / StartUp / Сезон: 2 / Серии: 1-10 из 10 [2017 WEB-DL 720p] DUB [Spike] bober100 Скачать
1 | 0
Зарубежные сериалы [ 31.31 GB ] Стартап / StartUp / Сезон: 2 / Серии: 1-10 из 10 [2017 WEB-DL 1080p] DUB [Spike] bober100 Скачать
1 | 0
Зарубежные сериалы [ 32.01 GB ] Стартап / StartUp / Сезон: 2 / Серия: 1-10 из 10 [2017 WEBRip 1080p] [MVO] killermax2013 Скачать
1 | 0
Зарубежные сериалы [ 5.38 GB ] Стартап / StartUp / Сезон: 2 / Серия: 1-10 из 10 [2017 WEBRip] [MVO] killermax2013 Скачать
1 | 0
Зарубежные сериалы [ 19.44 GB ] Стартап / StartUp / Сезон: 2 / Серия: 1-10 из 10 [2017 [2017 WEB-DLRip 1080p] [MVO] killermax2013 Скачать
1 | 0
Зарубежные сериалы [ 900 MB ] Стартап / StartUp / Сезон: 2 / Серия: 1 из 10 [2017 WEBRip 720p] [MVO] killermax2013 Скачать
1 | 0
Зарубежные сериалы [ 5.37 GB ] Стартап / StartUp / Сезон: 2 / Серия: 1-10 из 10 [2017 WEB-DLRip] [MVO] killermax2013 Скачать
1 | 0


Последний раз редактировалось: killermax2013 (2017-10-05 14:27), всего редактировалось 4 раз(а)

28-11-2019 20:33  

Отключить всю рекламу на сайте

30-09-2017 15:33 Стартап Скачать торрент  

+6-7pb.wtf



02-10-2017 17:42 Стартап Скачать торрент  

+8-9pb.wtf



03-10-2017 17:49 Стартап Скачать торрент  

+10. Финал сезонаpb.wtf



03-10-2017 18:50 Стартап Скачать торрент  

спасибо, посмотрим )pb.wtf



05-10-2017 14:20 Стартап Скачать торрент  

Заменено на релиз лучшего качества pb.wtf



    Дорогой пользователь! Огромная просьба, поблагодарите релизера, оцените раздачу и оставьте свои комментарий, если Вы скачали Стартап через торрент бесплатно! Внесите свою лепту в развитие PiratBit!
    Комментировать посты могут только пользователи прошедшие не сложную регистрацию
    Показать сообщения:    

    Стартап через торрент
    Скачать бесплатно Стартап
    Стартап скачать торрент
    Стартап смотреть онлайн
    Cкачать фильм Стартап бесплатно
    Стартап скачать торрент в хорошем качестве
    Стартап смотреть онлайн бесплатно в хорошем качестве


    Вы не можете начинать темы
    Вы не можете отвечать на сообщения
    Вы не можете редактировать свои сообщения
    Вы не можете удалять свои сообщения
    Вы не можете голосовать в опросах
    Вы не можете прикреплять файлы к сообщениям
    Вы можете скачивать файлы