Доктор Стрэндж

Лицензия

Добыча

Дубляж

Уэнсдэй

1 сезон

Тор

Дубляж

В эфире

Дубляж

Там, где раки поют

MVO

Властелин колец

1 сезон

Deluxe

pack

Рекомендуем

30

Пиратка

ВАЖНО

ВАЖНО

Ghostwire

Пиратка

jed

RePack

nioh2

RePack

RDR2

RePack

NEED FOR SPEED™ PAYBACK

RePack

скачать торрент

Кинопоиск HD

Острые козырьки 6 сезон

6 сезон

FAR CRY 6

RePack

скачать торрент

Лицензия

скачать торрент

MVO

1

1 сезон

скачать торрент

1 сезон

скачать торрент

Лицензия

  

Сдохни, Джон Такер (Расширенная версия) / John Tucker Must Die (Unrated) (Бетти Томас) [2006, мелодрама, комедия, BDRip 720p ] Дубляж, MVO

Сдохни, Джон Такер через торрент pb.wtf

Размер: 4.45 GB | Добавлен: 5 лет 2 мес. назад | Торрент скачан:47 раз
Смотреть онлайн | Скачать   

30-09-2017 13:18 Сдохни, Джон Такер Скачать торрент  

Название: Сдохни, Джон Такер
Оригинальное название: John Tucker Must Die
Год выпуска: 2006
Страна: США, Канада
Жанр: мелодрама, комедия
Продолжительность: 01:29:51
Перевод: дублированный, профессиональный многоголосый

Режиссер: Бетти Томас
В ролях: Джесси Меткалф, Бриттани Сноу, Ашанти, София Буш, Ариэль Кеббел, Пенн Бэджли, Дженни МакКарти, Фацо-Фасано, Кевин МакНалти, Патриция Дрэйк

Описание: Три бывшие подружки крутого школьного ловеласа решают ему отомстить. Для приведения жестокого плана в действие нужна приманка. Выбор падает на только что переехавшую в их школу очаровательную блондиночку...



Качество: BDRip 720p
Формат: MKV
Видео: MPEG-4 AVC, 5995 Кбит/с, 1280x690
Аудио 1: русский, AC3, 448 kbps, 6 ch, 48 kHz [дублированный]
Аудио 2: русский, AC3, 192 kbps, 2 ch, 48 kHz [профессиональный многоголосый]
Аудио 3: английский, AC3, 448 kbps, 6 ch, 48 kHz [оригинал]
Субтитры 1: русские
Субтитры 2: английские
Имеются неименованные главы/чаптеры.
Общее
Уникальный идентификатор : 252740094379109455038144486299809672814 (0xBE23F8BA3365C92887D67EE43B48EE6E)
Полное имя : D:\Video\Сдохни, Джон Такер.2006.Urated.BDRip.720p by msltel.mkv
Формат : Matroska
Версия формата : Version 4 / Version 2
Размер файла : 4,45 Гбайт
Продолжительность : 1 ч. 29 м.
Общий поток : 7086 Кбит/сек
Название фильма : Rip by msltel
Дата кодирования : UTC 2017-09-30 11:13:31
Программа кодирования : mkvmerge v8.2.0 ('World of Adventure') 64bit
Библиотека кодирования : libebml v1.3.1 + libmatroska v1.4.2

Видео
Идентификатор : 1
Формат : AVC
Формат/Информация : Advanced Video Codec
Профиль формата : [email protected]
Параметр CABAC формата : Да
Параметр RefFrames формата : 9 кадров
Идентификатор кодека : V_MPEG4/ISO/AVC
Продолжительность : 1 ч. 29 м.
Битрейт : 5995 Кбит/сек
Ширина : 1280 пикселей
Высота : 690 пикселей
Соотношение сторон : 1,85:1
Режим частоты кадров : Постоянный
Частота кадров : 23,976 (24000/1001) кадра/сек
Цветовое пространство : YUV
Субдискретизация насыщенности : 4:2:0
Битовая глубина : 8 бит
Тип развёртки : Прогрессивная
Бит/(Пиксели*Кадры) : 0.283
Размер потока : 3,76 Гбайт (85%)
Библиотека кодирования : x264 core 146 r2538 121396c
Настройки программы : cabac=1 / ref=9 / deblock=1:-3:-2 / analyse=0x3:0x113 / me=umh / subme=11 / psy=1 / psy_rd=1.00:0.15 / mixed_ref=1 / me_range=32 / chroma_me=1 / trellis=2 / 8x8dct=1 / cqm=0 / deadzone=21,11 / fast_pskip=0 / chroma_qp_offset=-3 / threads=6 / lookahead_threads=1 / sliced_threads=0 / nr=0 / decimate=1 / interlaced=0 / bluray_compat=0 / constrained_intra=0 / bframes=6 / b_pyramid=2 / b_adapt=2 / b_bias=0 / direct=1 / weightb=1 / open_gop=0 / weightp=2 / keyint=230 / keyint_min=23 / scenecut=40 / intra_refresh=0 / rc_lookahead=40 / rc=crf / mbtree=0 / crf=19.0 / qcomp=0.60 / qpmin=0 / qpmax=69 / qpstep=4 / vbv_maxrate=62500 / vbv_bufsize=78125 / crf_max=0.0 / nal_hrd=none / filler=0 / ip_ratio=1.40 / pb_ratio=1.30 / aq=1:1.00
Язык : English
Default : Да
Forced : Нет

Аудио #1
Идентификатор : 2
Формат : AC-3
Формат/Информация : Audio Coding 3
Параметр Endianness формата : Big
Идентификатор кодека : A_AC3
Продолжительность : 1 ч. 29 м.
Вид битрейта : Постоянный
Битрейт : 448 Кбит/сек
Каналы : 6 каналов
Расположение каналов : Front: L C R, Side: L R, LFE
Частота : 48,0 КГц
Частота кадров : 31,250 кадров/сек (1536 SPF)
Битовая глубина : 16 бит
Метод сжатия : С потерями
Размер потока : 288 Мбайт (6%)
Заголовок : Дубляж
Язык : Russian
ServiceKind/String : Complete Main
Default : Да
Forced : Нет

Аудио #2
Идентификатор : 3
Формат : AC-3
Формат/Информация : Audio Coding 3
Параметр Endianness формата : Big
Идентификатор кодека : A_AC3
Продолжительность : 1 ч. 29 м.
Вид битрейта : Постоянный
Битрейт : 192 Кбит/сек
Каналы : 2 канала
Расположение каналов : Front: L R
Частота : 48,0 КГц
Частота кадров : 31,250 кадров/сек (1536 SPF)
Битовая глубина : 16 бит
Метод сжатия : С потерями
Размер потока : 123 Мбайт (3%)
Заголовок : MVO
Язык : Russian
ServiceKind/String : Complete Main
Default : Нет
Forced : Нет

Аудио #3
Идентификатор : 4
Формат : AC-3
Формат/Информация : Audio Coding 3
Параметр Endianness формата : Big
Идентификатор кодека : A_AC3
Продолжительность : 1 ч. 29 м.
Вид битрейта : Постоянный
Битрейт : 448 Кбит/сек
Каналы : 6 каналов
Расположение каналов : Front: L C R, Side: L R, LFE
Частота : 48,0 КГц
Частота кадров : 31,250 кадров/сек (1536 SPF)
Битовая глубина : 16 бит
Метод сжатия : С потерями
Размер потока : 288 Мбайт (6%)
Заголовок : original
Язык : English
ServiceKind/String : Complete Main
Default : Нет
Forced : Нет

Текст #1
Идентификатор : 5
Формат : UTF-8
Идентификатор кодека : S_TEXT/UTF8
Идентификатор кодека/Информация : UTF-8 Plain Text
Продолжительность : 1 ч. 26 м.
Битрейт : 118 бит/сек
ElementCount : 1350
Размер потока : 75,2 Кбайт (0%)
Заголовок : русские
Язык : Russian
Default : Нет
Forced : Нет

Текст #2
Идентификатор : 6
Формат : UTF-8
Идентификатор кодека : S_TEXT/UTF8
Идентификатор кодека/Информация : UTF-8 Plain Text
Продолжительность : 1 ч. 29 м.
Битрейт : 80 бит/сек
ElementCount : 1459
Размер потока : 52,4 Кбайт (0%)
Заголовок : английские
Язык : English
Default : Нет
Forced : Нет

Меню
00:00:00.000 : en:00:00:00.000
00:04:17.382 : en:00:04:17.382
00:07:07.093 : en:00:07:07.093
00:11:05.164 : en:00:11:05.164
00:13:11.040 : en:00:13:11.040
00:17:33.928 : en:00:17:33.928
00:21:39.006 : en:00:21:39.006
00:24:36.850 : en:00:24:36.850
00:26:14.490 : en:00:26:14.490
00:29:50.622 : en:00:29:50.622
00:36:25.850 : en:00:36:25.850
00:40:11.993 : en:00:40:11.993
00:41:36.536 : en:00:41:36.536
00:45:10.499 : en:00:45:10.499
00:47:53.120 : en:00:47:53.120
00:54:44.865 : en:00:54:44.865
01:00:06.394 : en:01:00:06.394
01:04:39.501 : en:01:04:39.501
01:08:29.313 : en:01:08:29.313
01:11:52.600 : en:01:11:52.600
01:15:42.872 : en:01:15:42.872
01:18:31.874 : en:01:18:31.874
01:23:25.834 : en:01:23:25.834
01:25:43.764 : en:01:25:43.764



Скачать Сдохни, Джон Такер через торрент http://s010.radikal.ru/i311/1709/31/feeabbdc2e94.jpg Скачать, смотреть онлайн Сдохни, Джон Такер бесплантно в хорошем качестве Описание: Три бывшие подружки крутого школьного ловеласа решают ему отомстить. Для приведения жестокого плана в действие нужна приманка. ... 9.3 10 3
Info! Золотая раздача, скачанное не засчитывается.
Торрент: Зарегистрирован [2017-09-30 13:18] · скачан: 47 раз
Статус: √ проверено
Размер: 4.45 GB
Как cкачать? Как скачать Сдохни, Джон Такер через торрент | UTorrent

28-11-2019 20:33  


Отключить вcю реклaмy на сайте, в т.ч. и в плеере онлайн просмотра!

    Дорогой пользователь! Огромная просьба, поблагодарите релизера, оцените раздачу и оставьте свои комментарий, если Вы скачали Сдохни, Джон Такер через торрент бесплатно!!
    Комментировать посты могут только пользователи прошедшие не сложную регистрацию
    Показать сообщения:    


    Сдохни, Джон Такер через торрент
    Скачать бесплатно Сдохни, Джон Такер
    Сдохни, Джон Такер скачать торрент
    Сдохни, Джон Такер смотреть онлайн
    Cкачать фильм Сдохни, Джон Такер бесплатно
    Сдохни, Джон Такер скачать торрент в хорошем качестве
    Сдохни, Джон Такер смотреть онлайн бесплатно в хорошем качестве
    Вы не можете начинать темы
    Вы не можете отвечать на сообщения
    Вы не можете редактировать свои сообщения
    Вы не можете удалять свои сообщения
    Вы не можете голосовать в опросах
    Вы не можете прикреплять файлы к сообщениям
    Вы можете скачивать файлы
    Сдохни, Джон Такер / John Tucker Must Die [2006, мелодрама, комедия, BDRip 720p ] Дубляж, MVO смотреть онлайн, скачать торрент picoco.icu