Ссылка на приватное зеркало нашего сайта всего за 1$. Внимание количество ограничено!!!

2 сезон

iTunes

1 сезон

1

2 сезон

2 сезон

iTunes

1 сезон

RePack

30

Ultimate

ВАЖНО

ИГРА 18+

pack

RePack

MK11
pack

Забери бонус

RePack

jed

!!Акция!!

Alien_Rage

RePack

fifa19

RePack

Assassins Creed: Odyssey

RePack

NEED FOR SPEED™ PAYBACK

4 сезон

9 сезон

Бесстыжие 9 сезон

Все сериалы

все сериалы на PB.wtf

RePack

FAR CRY 5
  

Звёздный путь: Дискавери / Star Trek: Discovery / Сезон: 1 / Серии: 1-15 из 15 (Акива Голдсман, Адам Кэйн, Ли Роуз) [2017, Фантастика, WEB-DLRip] MVO [Jaskier] pb.wtf

Звёздный путь: Дискавери через торрент pb.wtf

Размер: 7.53 GB | Добавлен: 2 года 9 мес. назад | Торрент скачан:48 раз
Скачать  

30-09-2017 19:56 Звёздный путь: Дискавери Скачать торрент  

Звёздный путь: Дискавери / Star Trek: DiscoveryГод выпуска: 2017
Страна: США
Жанр: Фантастика
Продолжительность: 15 x ~ 00:40:00
Перевод: Профессиональный (многоголосый) | Jaskier
Субтитры: отсутствуют

Режиссер: Акива Голдсман, Адам Кэйн, Ли Роуз

rating

В ролях:

Джейсон Айзекс, Даг Джонс, Шазад Латиф, Сонекуа Мартин-Грин, Молик Панчоли, Энтони Рэпп, Мишель Йео, Кеннет Митчелл, Дэймон Рунян

Описание:

За 10 лет до начала истории, описанной в оригинальном сериале «Звёздный путь», экипаж корабля USS Discovery NCC-1031 отправляется в путешествие, чтобы изучать глубокий космос и открыть новые миры и цивилизации.

Качество: WEB-DLRip
Формат: AVI
Видео кодек: XviD
Аудио кодек: MP3

Видео: ~ 1500 kbps, 704x352, 23.976 fps
Аудио: MP3, 48,0 КГц, 2 ch, 128 kbps - Rus


скриншот   скриншот   скриншот  

Общее
Полное имя : D:\Star Trek Discovery. Season 1 (WEB-DLRip l 400p l Jaskier)\Star.Trek.Discovery.S01E01.400p.Jaskier.avi
Формат : AVI
Формат/Информация : Audio Video Interleave
Размер файла : 509 Мбайт
Продолжительность : 43 м. 31 с.
Общий поток : 1636 Кбит/сек
Программа кодирования : VirtualDubMod 1.5.10.3 | www.virtualdub-fr.org || (build 2550/release)
Библиотека кодирования : VirtualDubMod build 2550/release

Видео
Идентификатор : 0
Формат : MPEG-4 Visual
Профиль формата : Advanced Simple@L5
Параметр BVOP формата : 2
Параметр QPel формата : Нет
Параметр GMC формата : Без точки перехода
Параметр матрицы формата : Выборочная
Идентификатор кодека : XVID
Идентификатор кодека/Подсказка : XviD
Продолжительность : 43 м. 31 с.
Битрейт : 1499 Кбит/сек
Ширина : 704 пикселя
Высота : 352 пикселя
Соотношение сторон : 2,000
Частота кадров : 23,976 (23976/1000) кадра/сек
Цветовое пространство : YUV
Субдискретизация насыщенности : 4:2:0
Битовая глубина : 8 бит
Тип развёртки : Прогрессивная
Метод сжатия : С потерями
Бит/(Пиксели*Кадры) : 0.252
Размер потока : 466 Мбайт (92%)
Библиотека кодирования : XviD 73

Аудио
Идентификатор : 1
Формат : MPEG Audio
Версия формата : Version 1
Профиль формата : Layer 3
Режим : Joint stereo
Расширение режима : MS Stereo
Идентификатор кодека : 55
Идентификатор кодека/Подсказка : MP3
Продолжительность : 43 м. 31 с.
Вид битрейта : Постоянный
Битрейт : 128 Кбит/сек
Каналы : 2 канала
Частота : 48,0 КГц
Метод сжатия : С потерями
Размер потока : 39,8 Мбайт (8%)
Выравнивание : Соединение по промежуткам
Продолжительность промежутка : 42 мс. (1,00 видеокадр)
Время предзагрузки промежутка : 504 мс.

Когда раздача ведётся путём добавления новых серий, при каждом добавлении создётся новый торрент. Чтобы начать докачку новой серии, пользователям необходимо сделать следующее:
(1) остановить скачивание,
(2) удалить старый торрент у себя из клиента (старые серии удалять не надо),
(3) скачать новый торрент и запустить его у себя в клиенте вместо старого, при этом указать клиенту путь в старую папку, куда и должно происходить скачивание новых серий.
Ваш клиент при этом должен произвести хеширование (проверку) старой папки (если не производит сам - помогите ему сделать это), и будет докачивать только те серии, которых у вас ещё нет. Старые серии при этом не удаляются, а продолжают раздаваться!
Eсли вы уже удалили старые серии, то предотвратить повторную закачку старых серий можно, отжав галочку в соответсвующих местах при запуске нового торрента. По возможности, желательно не удалять старые серии как можно дольше, чтобы релизёр не столько продолжал раздавать старые серии, а смог сконцентрироваться на новых.
pb.wtf



Скачать Звёздный путь: Дискавери через торрент http://i89.fastpic.ru/big/2017/0928/93/832f84854eee91eec34934a645f6a293.png Скачать фильм Звёздный путь: Дискавери через торрент бесплантно в хорошем качестве Описание: За 10 лет до начала истории, описанной в оригинальном сериале «Звёздный путь», экипаж корабля USS Discovery NCC-1031 отправляется ... 10 10 6
Торрент: Зарегистрирован [2018-02-15 20:41] · скачан: 48 раз
Статус: √ проверено
Размер: 7.53 GB
Как cкачать? Как скачать Звёздный путь: Дискавери через торрент | qTorrent

% Раздел Тема Автор DL S | L
Зарубежные сериалы [ 24.4 GB ] Звёздный путь: Дискавери / Star Trek: Discovery / Сезон: 2 / Серии: 1-7 из 15 [2019 WEB-DL 1080p] MVO [Jaskier] bober100 Скачать
1 | 0
Зарубежные сериалы [ 9.65 GB ] Звёздный путь: Дискавери / Star Trek: Discovery / Сезон: 1 / Серии: 1-15 из 15 [2017 WEB-DLRip] MVO [Lostfilm] bober100 Скачать
2 | 0
Зарубежные сериалы [ 148.51 GB ] Звёздный путь: Дискавери / Star Trek: Discovery / Сезон: 1 / Серии: 1-15 из 15 [2017 BD Remux 1080p] 2xMVO [SDI Media LostFilm] bober100 Скачать
1 | 0
Зарубежные сериалы [ 25.27 GB ] Звёздный путь: Дискавери / Star Trek: Discovery / Сезон 1 / Серии 1-15 из 15 [2017 WEB-DLRip 1080p] [MVO] killermax2013 Скачать
1 | 0
Зарубежные сериалы [ 8.33 GB ] Звёздный путь: Дискавери / Star Trek: Discovery / Сезон 1 / Серии 1-15 из 15 [2017 WEBRip] [MVO] killermax2013 Скачать
1 | 0
Зарубежные сериалы [ 7.68 GB ] Звёздный путь: Дискавери / Star Trek: Discovery / Сезон: 1 / Серии: 1-15 из 15 [2017 WEBRip] DVO [Gears Media] bober100 Скачать
1 | 0
Зарубежные сериалы [ 28.7 GB ] Звёздный путь: Дискавери / Star Trek: Discovery / Сезон: 1 / Серии: 1-15 из 15 [2017 WEB-DL 1080p] MVO [LostFilm] bober100 Скачать
1 | 0


Последний раз редактировалось: bober100 (2018-02-15 20:41), всего редактировалось 8 раз(а)

28-11-2019 20:33  

Отключить всю рекламу на сайте

15-10-2017 14:23 Звёздный путь: Дискавери Скачать торрент  

раздражают орки звездные а так вполнеpb.wtf



    Дорогой пользователь! Огромная просьба, поблагодарите релизера, оцените раздачу и оставьте свои комментарий, если Вы скачали Звёздный путь: Дискавери через торрент бесплатно! Внесите свою лепту в развитие PiratBit!
    Комментировать посты могут только пользователи прошедшие не сложную регистрацию
    Показать сообщения:    

    Звёздный путь: Дискавери через торрент
    Скачать бесплатно Звёздный путь: Дискавери
    Звёздный путь: Дискавери скачать торрент
    Звёздный путь: Дискавери смотреть онлайн
    Cкачать фильм Звёздный путь: Дискавери бесплатно
    Звёздный путь: Дискавери скачать торрент в хорошем качестве
    Звёздный путь: Дискавери смотреть онлайн бесплатно в хорошем качестве


    Вы не можете начинать темы
    Вы не можете отвечать на сообщения
    Вы не можете редактировать свои сообщения
    Вы не можете удалять свои сообщения
    Вы не можете голосовать в опросах
    Вы не можете прикреплять файлы к сообщениям
    Вы можете скачивать файлы