Ссылка на приватное зеркало нашего сайта всего за 1$. Внимание количество ограничено!!!

2 сезон

iTunes

1 сезон

1

2 сезон

2 сезон

iTunes

1 сезон

RePack

30

Ultimate

ВАЖНО

ИГРА 18+

pack

RePack

MK11
pack

Забери бонус

RePack

jed

!!Акция!!

Alien_Rage

RePack

fifa19

RePack

Assassins Creed: Odyssey

RePack

NEED FOR SPEED™ PAYBACK

4 сезон

9 сезон

Бесстыжие 9 сезон

Все сериалы

все сериалы на PB.wtf

RePack

FAR CRY 5
  

Орвилл / The Orville / Сезон: 1 / Серии: 1-12 из 12 (Брэннон Брага, Джон Кассар) [2017, фантастика, драма, комедия, WEB-DL 720p] 4xMVO+DVO pb.wtf

Орвилл через торрент pb.wtf

Размер: 28.16 GB | Добавлен: 1 год 10 мес. назад | Торрент скачан:25 раз
Скачать  

01-10-2017 04:32 Орвилл Скачать торрент  

Орвилл / The Orville
Информация о фильме:

✦ Год выпуска: 2017
✦ Страна: США
✦ Жанр: фантастика, драма, комедия
✦ Продолжительность: ~ 00:45:00

✦ Перевод:

✦ Перевод 1: Профессиональный (многоголосый, закадровый) - NewStudio
✦ Перевод 2: Профессиональный (многоголосый, закадровый) - AlexFilm
✦ Перевод 3: Профессиональный (многоголосый, закадровый) - Jaskier
✦ Перевод 4: Профессиональный (многоголосый, закадровый) - LostFilm
✦ Перевод 5: Профессиональный (двухголосый, закадровый) - Кубик в Кубе

✦ Примечание: Без рекламы!

✦ Субтитры: Russian (Forced), English

✦ Режиссер: Брэннон Брага, Джон Кассар, Джеймс Л. Конуэй

rating

✦ В ролях:

Сет МакФарлейн, Чад Л. Коулмэн, Скотт Граймз, Марк Джексон, Пенни Джонсон, Дж. Ли, Питер Макон, Эдрианн Палики, Холстон Сейдж, Ларри Джо Кэмпбелл и др.

✦ Описание:

Космические приключения звездолёта с дефективным экипажем через 400 лет в будущем. Неудачливый капитан, его бывшая жена, его лучший друг с шилом в заднице, негр, суперсильная кселайка, безэмоциональный моклан, расист с Кайлона-1 и рассудительная докторша нарываются на авантюры.

Информация о файле:

✦ Качество: WEB-DL 720p
✦ Формат: MKV
✦ Видео кодек: H.264
✦ Аудио кодек: AC3

✦ Видео: 1280x720 at 23.976 fps, MPEG-4 AVC, ~5000 kbps avg
✦ Аудио#1: RUS: AC3, 48 KHz, 6 ch, 384 kbps - NewStudio
✦ Аудио#2: RUS: AC3, 48 KHz, 6 ch, 384 kbps - AlexFilm
✦ Аудио#3: RUS: AC3, 48 KHz, 2 ch, 384 kbps - Jaskier
✦ Аудио#4: RUS: AC3, 48 KHz, 6 ch, 640 kbps - LostFilm
✦ Аудио#5: RUS: AC3, 48 KHz, 6 ch, 640 kbps - Кубик в Кубе
✦ Аудио#6: ENG: AC3, 48 KHz, 6 ch, 640 kbps


скриншот  скриншот  скриншот  скриншот  

Общее
Уникальный идентификатор : 192488745114685417768621280440312075691 (0x90CFFBDB74D918E28F100E45FA5315AB)
Полное имя : D:\The.Orville.S01.720p.AMZN.WEBRip.5xRus.Eng.sergiy_psp\The.Orville.S01E01.720p.AMZN.WEBRip.5xRus.Eng.sergiy_psp.mkv
Формат : Matroska
Версия формата : Version 4 / Version 2
Размер файла : 2,54 Гбайт
Продолжительность : 45 м. 5 с.
Общий поток : 8063 Кбит/сек
Дата кодирования : UTC 2017-10-15 17:23:54
Программа кодирования : mkvmerge v17.0.0 ('Be Ur Friend') 64-bit
Библиотека кодирования : libebml v1.3.5 + libmatroska v1.4.8

Видео
Идентификатор : 1
Формат : AVC
Формат/Информация : Advanced Video Codec
Профиль формата : High@L4.1
Параметр CABAC формата : Да
Параметр RefFrames формата : 9 кадров
Параметр GOP формата : M=2, N=24
Идентификатор кодека : V_MPEG4/ISO/AVC
Продолжительность : 45 м. 5 с.
Битрейт : 4931 Кбит/сек
Ширина : 1280 пикселей
Высота : 720 пикселей
Соотношение сторон : 16:9
Режим частоты кадров : Постоянный
Частота кадров : 23,976 (24000/1001) кадра/сек
Цветовое пространство : YUV
Субдискретизация насыщенности : 4:2:0
Битовая глубина : 8 бит
Тип развёртки : Прогрессивная
Бит/(Пиксели*Кадры) : 0.219
Размер потока : 1,52 Гбайт (60%)
Заголовок : The.Orville.S01E01.720p.AMZN.WEBRip.5xRus.Eng.sergiy_psp
Язык : English
Default : Да
Forced : Нет

Аудио #1
Идентификатор : 2
Формат : AC-3
Формат/Информация : Audio Coding 3
Расширение режима : CM (complete main)
Параметр Endianness формата : Big
Идентификатор кодека : A_AC3
Продолжительность : 45 м. 5 с.
Вид битрейта : Постоянный
Битрейт : 384 Кбит/сек
Каналы : 6 каналов
Расположение каналов : Front: L C R, Side: L R, LFE
Частота : 48,0 КГц
Частота кадров : 31,250 кадров/сек (1536 spf)
Метод сжатия : С потерями
Размер потока : 124 Мбайт (5%)
Заголовок : Newstudio 5.1
Язык : Russian
Default : Да
Forced : Нет

Аудио #2
Идентификатор : 3
Формат : AC-3
Формат/Информация : Audio Coding 3
Расширение режима : CM (complete main)
Параметр Endianness формата : Big
Идентификатор кодека : A_AC3
Продолжительность : 45 м. 5 с.
Вид битрейта : Постоянный
Битрейт : 640 Кбит/сек
Каналы : 6 каналов
Расположение каналов : Front: L C R, Side: L R, LFE
Частота : 48,0 КГц
Частота кадров : 31,250 кадров/сек (1536 spf)
Метод сжатия : С потерями
Размер потока : 206 Мбайт (8%)
Заголовок : LostFilm 5.1
Язык : Russian
Default : Нет
Forced : Нет

Аудио #3
Идентификатор : 4
Формат : AC-3
Формат/Информация : Audio Coding 3
Расширение режима : CM (complete main)
Параметр Endianness формата : Big
Идентификатор кодека : A_AC3
Продолжительность : 45 м. 5 с.
Вид битрейта : Постоянный
Битрейт : 384 Кбит/сек
Каналы : 6 каналов
Расположение каналов : Front: L C R, Side: L R, LFE
Частота : 48,0 КГц
Частота кадров : 31,250 кадров/сек (1536 spf)
Метод сжатия : С потерями
Размер потока : 124 Мбайт (5%)
Заголовок : Jaskier 5.1
Язык : Russian
Default : Нет
Forced : Нет

Аудио #4
Идентификатор : 5
Формат : AC-3
Формат/Информация : Audio Coding 3
Расширение режима : CM (complete main)
Параметр Endianness формата : Big
Идентификатор кодека : A_AC3
Продолжительность : 45 м. 5 с.
Вид битрейта : Постоянный
Битрейт : 640 Кбит/сек
Каналы : 6 каналов
Расположение каналов : Front: L C R, Side: L R, LFE
Частота : 48,0 КГц
Частота кадров : 31,250 кадров/сек (1536 spf)
Метод сжатия : С потерями
Размер потока : 206 Мбайт (8%)
Заголовок : Кубик в Кубе 5.1
Язык : Russian
Default : Нет
Forced : Нет

Аудио #5
Идентификатор : 6
Формат : AC-3
Формат/Информация : Audio Coding 3
Расширение режима : CM (complete main)
Параметр Endianness формата : Big
Идентификатор кодека : A_AC3
Продолжительность : 45 м. 5 с.
Вид битрейта : Постоянный
Битрейт : 384 Кбит/сек
Каналы : 6 каналов
Расположение каналов : Front: L C R, Side: L R, LFE
Частота : 48,0 КГц
Частота кадров : 31,250 кадров/сек (1536 spf)
Метод сжатия : С потерями
Размер потока : 124 Мбайт (5%)
Заголовок : AlexFilm 5.1
Язык : Russian
Default : Нет
Forced : Нет

Аудио #6
Идентификатор : 7
Формат : E-AC-3
Формат/Информация : Audio Coding 3
Параметр Endianness формата : Big
Идентификатор кодека : A_EAC3
Продолжительность : 45 м. 5 с.
Вид битрейта : Постоянный
Битрейт : 640 Кбит/сек
Каналы : 6 каналов
Расположение каналов : Front: L C R, Side: L R, LFE
Частота : 48,0 КГц
Частота кадров : 187,500 кадров/сек (256 spf)
Метод сжатия : С потерями
Задержка видео : 167 мс.
Размер потока : 206 Мбайт (8%)
Заголовок : Original 5.1
Язык : Russian
Default : Нет
Forced : Нет

Текст #1
Идентификатор : 8
Формат : ASS
Идентификатор кодека : S_TEXT/ASS
Идентификатор кодека/Информация : Advanced Sub Station Alpha
Метод сжатия : Без потерь
Заголовок : rus sub (forced)
Язык : Russian
Default : Да
Forced : Нет

Текст #2
Идентификатор : 9
Формат : UTF-8
Идентификатор кодека : S_TEXT/UTF8
Идентификатор кодека/Информация : UTF-8 Plain Text
Заголовок : eng sub (full)
Язык : English
Default : Нет
Forced : Нет

Когда раздача ведётся путём добавления новых серий, при каждом добавлении создётся новый торрент. Чтобы начать докачку новой серии, пользователям необходимо сделать следующее:
(1) остановить скачивание,
(2) удалить старый торрент у себя из клиента (старые серии удалять не надо),
(3) скачать новый торрент и запустить его у себя в клиенте вместо старого, при этом указать клиенту путь в старую папку, куда и должно происходить скачивание новых серий.
Ваш клиент при этом должен произвести хеширование (проверку) старой папки (если не производит сам - помогите ему сделать это), и будет докачивать только те серии, которых у вас ещё нет. Старые серии при этом не удаляются, а продолжают раздаваться!
Eсли вы уже удалили старые серии, то предотвратить повторную закачку старых серий можно, отжав галочку в соответсвующих местах при запуске нового торрента. По возможности, желательно не удалять старые серии как можно дольше, чтобы релизёр не столько продолжал раздавать старые серии, а смог сконцентрироваться на новых.
pb.wtf



Скачать Орвилл через торрент http://img11.lostpic.net/2018/11/15/284448c613703f6453973abf3fee3a1b.png Скачать фильм Орвилл через торрент бесплантно в хорошем качестве Описание: Космические приключения звездолёта с дефективным экипажем через 400 лет в будущем. Неудачливый капитан, его бывшая жена, его ... 7.8 10 4
Торрент: Зарегистрирован [2019-01-01 06:56] · скачан: 25 раз
Статус: √ проверено
Размер: 28.16 GB
Как cкачать? Как скачать Орвилл через торрент | qTorrent

28-11-2019 20:33  

Отключить всю рекламу на сайте

    Дорогой пользователь! Огромная просьба, поблагодарите релизера, оцените раздачу и оставьте свои комментарий, если Вы скачали Орвилл через торрент бесплатно! Внесите свою лепту в развитие PiratBit!
    Комментировать посты могут только пользователи прошедшие не сложную регистрацию
    Показать сообщения:    

    Орвилл через торрент
    Скачать бесплатно Орвилл
    Орвилл скачать торрент
    Орвилл смотреть онлайн
    Cкачать фильм Орвилл бесплатно
    Орвилл скачать торрент в хорошем качестве
    Орвилл смотреть онлайн бесплатно в хорошем качестве


    Вы не можете начинать темы
    Вы не можете отвечать на сообщения
    Вы не можете редактировать свои сообщения
    Вы не можете удалять свои сообщения
    Вы не можете голосовать в опросах
    Вы не можете прикреплять файлы к сообщениям
    Вы можете скачивать файлы