новый адрес
Мега распродажа FORZA HORIZON 4 ULTIMATE+ВСЕ DLC+ОНЛАЙН всего за 499р. 349 руб. (супер цена). Внимание количество ограничено!!!

iTunes

1+1

iTunes

мы

iTunes

1

iTunes

Чернобыль

iTunes

Ральф против интернета

Лицензия

ПШазам

Лицензия

Игра престолов

Лицензия

30
pack

ВАЖНО

!!Акция!!

Alien_RageХит недели

RePack

Resident Evil 21

ИГРА 18+

pack

RePack

Metro:Exodus

!!Акция!!

Alien_Rage

RePack

fifa19

RePack

Assassins Creed: Odyssey

RePack

NEED FOR SPEED™ PAYBACK

3 сезон

9 сезон

Бесстыжие 9 сезон

Все сериалы

все сериалы на PB.wtf

RePack

FAR CRY 5
Ребята, катастрофически не хватает 1900р. для оплаты серверов за Октябрь (всвязи с блокировками трафик упал в 3 раза), 1-2р., выручайте.
  

Загадочная история Бенджамина Баттона / The Curious Case of Benjamin Button (Дэвид Финчер ) [2008, драма, фэнтези, BDRip 720p от potroks] Dub [Лицензия] pb.wtf

Загадочная история Бенджамина Баттона через торрент pb.wtf

Раздают: 1 [ 0 KB/s ]
Размер: 7.76 GB | Добавлен: 2 года 1 мес. назад | Торрент скачан:159 раз
Скачать  

01-10-2017 05:39 Загадочная история Бенджамина Баттона Скачать торрент  

Загадочная история Бенджамина Баттона / The Curious Case of Benjamin Button

Год выпуска: 2008
Страна: США / Paramount Pictures, Warner Bros. Pictures Co., The Kennedy/Marshall Company
Жанр: драма, фэнтези
Продолжительность: 02:46:04
Перевод: Дубляж [Blu-ray CEE]
Субтитры: русские (форс.), русские (Blu-ray CEE), русские (Voronine), русские (Unknown), английские (Full + SDH)
Навигация по главам: есть

Режиссер: Дэвид Финчер
В ролях:

Брэд Питт (Benjamin Button), Кейт Бланшетт (Daisy), Джулия Ормонд (Caroline), Тараджи П. Хенсон (Queenie), Джейсон Флеминг (Thomas Button), Джаред Харрис (Captain Mike), Тильда Суинтон (Elizabeth Abbott), Махершала Али (Tizzy), Эль Фаннинг (Daisy Age 7), Элиас Котеас (Monsieur Gateau), Рампаи Мохади (Ngunda Oti), Денин Тайлер (Queenie's Daughter Age 40)

Описание: Фильм о мужчине, который родился в возрасте 80-ти лет, а затем... начал молодеть. Этот человек, как и каждый из нас, не мог остановить время. Его путь в ХХI век, берущий свое начало в Новом Орлеане в 1918-м году в самом конце Первой Мировой войны, будет столь необычен, что вряд ли мог иметь место в жизни кого-либо другого. Фильм повествует о судьбе уникального человека, о людях и событиях, что ждут его впереди, о любви, которую он обретет и потеряет, о радостях жизни и грусти потерь и о том, что остается с нами вне времени.



Качество: BDRip 720p
Формат: MKV
Видео: AVC, 1280x534 (2.40:1), 5410 kbps, 23,976 fps
Аудио №1: AC3 / 5.1 / 48 kHz / 640 kbps | RUS
Аудио №2: AC3 / 5.1 / 48 kHz / 640 kbps | ENG
General
Unique ID : 198501968692932449276416267576118931382 (0x955616AB6151C921B84A2758E084EFB6)
Complete name : D:\Zagadochnaya.Istoriya.Bendzhamina.Battona.2008.DUAL.BDRip.720p.-HELLYWOOD.mkv
Format : Matroska
Format version : Version 4 / Version 2
File size : 7.76 GiB
Duration : 2 h 46 min
Overall bit rate : 6 691 kb/s
Movie name : The Curious Case of Benjamin Button (2008)
Encoded date : UTC 2017-10-01 02:36:38
Writing application : mkvmerge v5.9.0 ('On The Loose') built on Dec 15 2012 16:39:58
Writing library : libebml v1.3.0 + libmatroska v1.4.0

Video
ID : 1
Format : AVC
Format/Info : Advanced Video Codec
Format profile : High@L4.1
Format settings, CABAC : Yes
Format settings, ReFrames : 9 frames
Codec ID : V_MPEG4/ISO/AVC
Duration : 2 h 46 min
Bit rate : 5 410 kb/s
Width : 1 280 pixels
Height : 534 pixels
Display aspect ratio : 2.40:1
Frame rate mode : Constant
Frame rate : 23.976 (24000/1001) FPS
Color space : YUV
Chroma subsampling : 4:2:0
Bit depth : 8 bits
Scan type : Progressive
Bits/(Pixel*Frame) : 0.330
Stream size : 6.12 GiB (79%)
Title : potroks
Writing library : x264 core 152 r2851M ba24899
Encoding settings : cabac=1 / ref=9 / deblock=1:-2:-2 / analyse=0x3:0x133 / me=umh / subme=11 / psy=1 / psy_rd=1.05:0.10 / mixed_ref=1 / me_range=48 / chroma_me=1 / trellis=2 / 8x8dct=1 / cqm=0 / deadzone=21,11 / fast_pskip=0 / chroma_qp_offset=-3 / threads=9 / lookahead_threads=2 / sliced_threads=0 / nr=0 / decimate=0 / interlaced=0 / bluray_compat=0 / constrained_intra=0 / bframes=11 / b_pyramid=2 / b_adapt=2 / b_bias=0 / direct=3 / weightb=1 / open_gop=0 / weightp=2 / keyint=240 / keyint_min=23 / scenecut=40 / intra_refresh=0 / rc_lookahead=0 / rc=2pass / mbtree=0 / bitrate=5410 / ratetol=1.0 / qcomp=0.70 / qpmin=0 / qpmax=69 / qpstep=4 / cplxblur=20.0 / qblur=0.5 / vbv_maxrate=62500 / vbv_bufsize=44642 / nal_hrd=none / filler=0 / ip_ratio=1.40 / pb_ratio=1.30 / aq=2:0.80
Language : English
Default : Yes
Forced : No
Color range : Limited
Color primaries : BT.709
Transfer characteristics : BT.709
Matrix coefficients : BT.709

Audio #1
ID : 2
Format : AC-3
Format/Info : Audio Coding 3
Mode extension : CM (complete main)
Format settings, Endianness : Big
Codec ID : A_AC3
Duration : 2 h 46 min
Bit rate mode : Constant
Bit rate : 640 kb/s
Channel(s) : 6 channels
Channel positions : Front: L C R, Side: L R, LFE
Sampling rate : 48.0 kHz
Frame rate : 31.250 FPS (1536 spf)
Compression mode : Lossy
Stream size : 760 MiB (10%)
Title : Dub | DD 5.1 @ 640 kbps - Blu-ray CEE
Language : Russian
Default : Yes
Forced : No

Audio #2
ID : 3
Format : AC-3
Format/Info : Audio Coding 3
Mode extension : CM (complete main)
Format settings, Endianness : Big
Codec ID : A_AC3
Duration : 2 h 46 min
Bit rate mode : Constant
Bit rate : 640 kb/s
Channel(s) : 6 channels
Channel positions : Front: L C R, Side: L R, LFE
Sampling rate : 48.0 kHz
Frame rate : 31.250 FPS (1536 spf)
Compression mode : Lossy
Stream size : 760 MiB (10%)
Title : Original | DD 5.1 @ 640 kbps
Language : English
Default : No
Forced : No

Text #1
ID : 4
Format : UTF-8
Codec ID : S_TEXT/UTF8
Codec ID/Info : UTF-8 Plain Text
Title : Forced
Language : Russian
Default : Yes
Forced : No

Text #2
ID : 5
Format : UTF-8
Codec ID : S_TEXT/UTF8
Codec ID/Info : UTF-8 Plain Text
Title : Blu-rayCEE
Language : Russian
Default : No
Forced : No

Text #3
ID : 6
Format : UTF-8
Codec ID : S_TEXT/UTF8
Codec ID/Info : UTF-8 Plain Text
Title : Voronine
Language : Russian
Default : No
Forced : No

Text #4
ID : 7
Format : UTF-8
Codec ID : S_TEXT/UTF8
Codec ID/Info : UTF-8 Plain Text
Title : Unknown
Language : Russian
Default : No
Forced : No

Text #5
ID : 8
Format : UTF-8
Codec ID : S_TEXT/UTF8
Codec ID/Info : UTF-8 Plain Text
Title : Full
Language : English
Default : No
Forced : No

Text #6
ID : 9
Format : UTF-8
Codec ID : S_TEXT/UTF8
Codec ID/Info : UTF-8 Plain Text
Title : SDH
Language : English
Default : No
Forced : No

Menu
00:00:00.000 : en:Opening Credits
00:00:23.648 : en:Mr. Gateau's Clock
00:06:23.591 : en:Benjamin's Diary
00:17:54.573 : en:"You Never Know What's Coming for You"
00:31:11.953 : en:Daisy
00:41:32.531 : en:Nights to Remember
00:59:20.139 : en:Winter Palace Hotel
01:16:41.888 : en:Off to War
01:24:23.683 : en:Kismet
01:35:08.077 : en:Mr. Thomas Button
01:44:37.521 : en:"Never Far From My Thoughts"
01:51:44.781 : en:Collision Course
01:59:21.153 : en:When It Was Supposed to Happen
02:11:25.085 : en:Meeting in the Middle
02:21:33.568 : en:Postcards
02:31:12.146 : en:Good Night, Benjamin
02:39:16.171 : en:Closing Credits
pb.wtf



Скачать Загадочная история Бенджамина Баттона через торрент http://i5.imageban.ru/out/2017/10/01/77089920a10fe31eeb43fdbd87ef61fe.png Скачать фильм Загадочная история Бенджамина Баттона через торрент бесплантно в хорошем качестве Описание: Фильм о мужчине, который родился в возрасте 80-ти лет, а затем... начал молодеть. Этот человек, как и каждый из нас, не мог ... 10 10 3
Info! Золотая раздача, скачанное не засчитывается.
Торрент: Зарегистрирован [2017-10-01 05:39] · скачан: 159 раз
Статус: √ проверено
Размер: 7.76 GB
Как cкачать? Как скачать Загадочная история Бенджамина Баттона через торрент | qTorrent

% Раздел Тема Автор DL S | L
Фильмы [HD 720p, 1080p] (Хороший звук DUB, MVO) [ 17.7 GB ] Загадочная история Бенджамина Баттона / The Curious Case of Benjamin Button [2008 BDRip 1080p от NNNB] DUB + MVO + AVO + Original + Sub _denis_100 Скачать
1 | 0
Фильмы [HD 720p, 1080p] (Хороший звук DUB, MVO) [ 4.38 GB ] Загадочная история Бенджамина Баттона / The Curious Case of Benjamin Button [2008 BDRip] [720p] Maks_zm Скачать
1 | 0
Фильмы 2006-2008 [ 2.1 GB ] Загадочная история Бенджамина Баттона / The Curious Case of Benjamin Button [2008 HDRip] m9sо Скачать
1 | 1
Фильмы [HD 720p, 1080p] (Хороший звук DUB, MVO) [ 16.84 GB ] Загадочная история Бенджамина Баттона / The Curious Case of Benjamin Button [2008 BDRip 1080p] Dub + MVO + AVO + Sub Rus Eng + Original Eng Ворон Скачать
1 | 0
Фильмы 2006-2008 [ 2.05 GB ] Загадочная история Бенджамина Баттона / The Curious Case of Benjamin Button [2008 DVDRip] paul08 Скачать
1 | 0
Фильмы 2006-2008 [ 1.46 GB ] Загадочная история Бенджамина Баттона / The Curious Case of Benjamin Button [2008 BDRip] Anonymous Скачать
1 | 0
Фильмы 2006-2008 [ 1.39 GB ] Загадочная история Бенджамина Баттона / The Curious Case of Benjamin Button [2008 пиратка] maradёr Скачать
1 | 0


>> Регистрируемся здесь <<






Отзывы и комментарии о схеме читаем и пишем здесь: ---> Отзывы и комментарии о схеме

Новые благодарочки в телеграм довольных пользователей:
скриншот   скриншот   скриншот   скриншот   скриншот
    Дорогой пользователь! Огромная просьба, поблагодарите релизера, оцените раздачу и оставьте свои комментарий, если Вы скачали Загадочная история Бенджамина Баттона через торрент бесплатно! Внесите свою лепту в развитие PiratBit!
    Комментировать посты могут только пользователи прошедшие не сложную регистрацию
    Показать сообщения:    

    Загадочная история Бенджамина Баттона через торрент
    Скачать бесплатно Загадочная история Бенджамина Баттона
    Загадочная история Бенджамина Баттона скачать торрент
    Загадочная история Бенджамина Баттона смотреть онлайн
    Cкачать фильм Загадочная история Бенджамина Баттона бесплатно
    Загадочная история Бенджамина Баттона скачать торрент в хорошем качестве
    Загадочная история Бенджамина Баттона смотреть онлайн бесплатно в хорошем качестве


    Вы не можете начинать темы
    Вы не можете отвечать на сообщения
    Вы не можете редактировать свои сообщения
    Вы не можете удалять свои сообщения
    Вы не можете голосовать в опросах
    Вы не можете прикреплять файлы к сообщениям
    Вы можете скачивать файлы