Ссылка на приватное зеркало нашего сайта всего за 1$. Внимание количество ограничено!!!

2 сезон

iTunes

1 сезон

1

2 сезон

2 сезон

iTunes

1 сезон

RePack

30

Новинка

ВАЖНО

ИГРА 18+

pack

RePack

MK11
pack

Забери бонус

RePack

jed

!!Акция!!

Alien_Rage

RePack

fifa19

RePack

Assassins Creed: Odyssey

RePack

NEED FOR SPEED™ PAYBACK

4 сезон

9 сезон

Бесстыжие 9 сезон

Все сериалы

все сериалы на PB.wtf

RePack

FAR CRY 5
  

Стартап / StartUp / Сезон: 2 / Серия: 1-4 из 10 (Бен Кетаи) [2017, Триллер, криминал, WEB-DLRip] [MVO] (Newstudio) pb.wtf

Стартап через торрент pb.wtf

Размер: 2.15 GB | Добавлен: 3 года 2 мес. назад | Торрент скачан:23 раза
Скачать  

01-10-2017 07:09 Стартап Скачать торрент  

Стартап | StartUp

Год выпуска: 2017
Страна: США
Жанр: Триллер, криминал
Продолжительность: ~ 00:50:00
Перевод: Профессиональный (многоголосый закадровый) *Newstudio*
Субтитры: Нет

Режиссёр: Бен Кетаи

В ролях: Мартин Фриман, Адам Броди, Эди Гатеги, Кристен Ариза, Эшли Хиншоу, Келвин Харрисон и другие

Описание: Нередко хорошая идея, существующая где-то в умах гениального конструктора или стратега не воплощается в реальность из-за того, что нет подходящих ресурсов для ее осуществления. Так и оказывается в этот раз. Cериал рассказывает о трех разных людях, занимающихся реализацией одной и той же идеи. Один из них Фил Раск, который является агентом ФБР. Он расследует преступления в мире финансов. Он знакомится с Ником Талмоном, молодым человеком, который является сыном одного из подозреваемых в ведущемся деле. Тут начинается разворачиваться нешуточная семейная драма, которая переплетается с расследованием.



Качество: WEB-DLRip
Формат: AVI
Видео кодек: XviD
Аудио кодек: MP3
Видео: 720x400, 23.976 fps, XviD build 50 ~1400 kbps avg
Аудио: 48 kHz, MP3, 2 ch, ~128 kbps - MVO
Аудио: 48 kHz, MP3, 2 ch, ~128 kbps - ENG
General
Complete name : E:\StartUp.2016.s02.WEBDLRip.NewStudio.TV\StartUp.2016.s02e01.WEBDLRip.NewStudio.avi
Format : AVI
Format/Info : Audio Video Interleave
File size : 550 MiB
Duration : 48mn 39s
Overall bit rate : 1 580 Kbps
Writing application : VirtualDubMod 1.5.10.2 (build 2540/release)
Writing library : VirtualDubMod build 2540/release

Video
ID : 0
Format : MPEG-4 Visual
Format profile : Advanced Simple@L5
Format settings, BVOP : 2
Format settings, QPel : Yes
Format settings, GMC : No warppoints
Format settings, Matrix : Default (MPEG)
Muxing mode : Packed bitstream
Codec ID : XVID
Codec ID/Hint : XviD
Duration : 48mn 39s
Source duration : 18mn 24s
Bit rate : 1 394 Kbps
Width : 720 pixels
Height : 400 pixels
Display aspect ratio : 16:9
Frame rate : 23.976 fps
Color space : YUV
Chroma subsampling : 4:2:0
Bit depth : 8 bits
Scan type : Progressive
Compression mode : Lossy
Bits/(Pixel*Frame) : 0.202
Stream size : 184 MiB (33%)
Writing library : XviD 73

Audio #1
ID : 1
Format : MPEG Audio
Format version : Version 1
Format profile : Layer 3
Mode : Joint stereo
Mode extension : MS Stereo
Codec ID : 55
Codec ID/Hint : MP3
Duration : 48mn 39s
Source duration : 18mn 25s
Bit rate mode : Constant
Bit rate : 128 Kbps
Channel(s) : 2 channels
Sampling rate : 48.0 KHz
Compression mode : Lossy
Stream size : 16.9 MiB (3%)
Alignment : Aligned on interleaves
Interleave, duration : 42 ms (1.00 video frame)
Interleave, preload duration : 504 ms

Audio #2
ID : 2
Format : MPEG Audio
Format version : Version 1
Format profile : Layer 3
Mode : Joint stereo
Codec ID : 55
Codec ID/Hint : MP3
Duration : 48mn 39s
Source duration : 18mn 25s
Bit rate mode : Constant
Bit rate : 128 Kbps
Channel(s) : 2 channels
Sampling rate : 48.0 KHz
Compression mode : Lossy
Stream size : 16.9 MiB (3%)
Alignment : Aligned on interleaves
Interleave, duration : 42 ms (1.00 video frame)
Interleave, preload duration : 504 ms
Writing library : LAME3.99r
Encoding settings : -m j -V 4 -q 2 -lowpass 17 -b 128
скриншот   скриншот   скриншот   скриншот   скриншот  
Внимание! Раздача ведётся путём добавления новых серий; при каждом добавлении создётся новый торрент. Чтобы начать докачку новой серии, пользователям необходимо сделать следующее:
Остановить скачивание.
Удалить старый торрент у себя из клиента (старые серии удалять не надо).
Скачать новый торрент и запустить его у себя в клиенте вместо старого, при этом указать клиенту путь в старую папку куда и должно происходить скачивание новых серий.
Ваш клиент при этом должен произвести хеширование (проверку) старой папки (если не производит сам - помогите ему сделать это), и будет докачивать только те серии которых у вас ещё нет. Старые серии при этом не удаляются, а продолжают раздаваться!
Eсли вы уже удалили старые серии, то предотвратить повторную закачку старых серий можно, отжав галочку в соответсвующих местах при запуске нового торрента. По возможности, желательно не удалять старые серии как можно дольше чтобы релизёр не столько продолжал раздавать старые серии, а смог сконцентрироваться на новых.
pb.wtf



Скачать Стартап через торрент https://i91.fastpic.ru/big/2017/0904/10/57f43122a7901c9eeefb303c33fec110.png Скачать фильм Стартап через торрент бесплантно в хорошем качестве Описание: Нередко хорошая идея, существующая где-то в умах гениального конструктора или стратега не воплощается в реальность из-за того, ... 10 10 1
Торрент: Зарегистрирован [2017-10-01 07:09] · скачан: 23 раз
Статус: √ проверено
Размер: 2.15 GB
Как cкачать? Как скачать Стартап через торрент | qTorrent

28-11-2019 20:33  

Отключить всю рекламу на сайте

    Дорогой пользователь! Огромная просьба, поблагодарите релизера, оцените раздачу и оставьте свои комментарий, если Вы скачали Стартап через торрент бесплатно! Внесите свою лепту в развитие PiratBit!
    Комментировать посты могут только пользователи прошедшие не сложную регистрацию
    Показать сообщения:    

    Стартап через торрент
    Скачать бесплатно Стартап
    Стартап скачать торрент
    Стартап смотреть онлайн
    Cкачать фильм Стартап бесплатно
    Стартап скачать торрент в хорошем качестве
    Стартап смотреть онлайн бесплатно в хорошем качестве


    Вы не можете начинать темы
    Вы не можете отвечать на сообщения
    Вы не можете редактировать свои сообщения
    Вы не можете удалять свои сообщения
    Вы не можете голосовать в опросах
    Вы не можете прикреплять файлы к сообщениям
    Вы можете скачивать файлы