новый адрес
Мега распродажа FORZA HORIZON 4 ULTIMATE+ВСЕ DLC+ОНЛАЙН всего за 499р. 349 руб. (супер цена). Внимание количество ограничено!!!

iTunes

1+1

iTunes

мы

iTunes

1

iTunes

Чернобыль

iTunes

Ральф против интернета

Лицензия

ПШазам

Лицензия

Игра престолов

Лицензия

30
pack

ВАЖНО

!!Акция!!

Alien_RageХит недели

RePack

Resident Evil 21

ИГРА 18+

pack

RePack

Metro:Exodus

!!Акция!!

Alien_Rage

RePack

fifa19

RePack

Assassins Creed: Odyssey

RePack

NEED FOR SPEED™ PAYBACK

3 сезон

9 сезон

Бесстыжие 9 сезон

Все сериалы

все сериалы на PB.wtf

RePack

FAR CRY 5
Ребята, катастрофически не хватает 1900р. для оплаты серверов за Октябрь (всвязи с блокировками трафик упал в 3 раза), 1-2р., выручайте.
  

Лавина с гор (Василий Журавлёв) [1958, СССР, киноповесть, SATRip от AVP Studio] pb.wtf

Лавина с гор через торрент pb.wtf

Размер: 1.09 GB | Добавлен: 2 года 1 мес. назад | Торрент скачан:7 раз
Скачать  

01-10-2017 07:20 Лавина с гор Скачать торрент  

Лавина с гор
Страна: СССР
Производство: Мосфильм

Жанр: киноповесть
Год выпуска: 1958
Продолжительность: 01:34:53

Перевод: Не требуется
Cубтитры: нет
Оригинальная аудиодорожка: русский

Режиссер: Василий Журавлёв

В ролях:
Юрий Дубровин, Георгий Черноволенко, Александр Шворин, Сергей Папов, Галина Григорьева, Куна Дышекова, Инна Выходцева, Владимир Белокуров, Андрей Файт, Гурген Тонунц, Барасби Мулаев, Т. Рахаев, Хакуца Карданова, Александр Хвыля, Пшизаби Мисостишхов, Л. Кадзокова, Лев Золотухин, Башир Сонов, Георгий Милляр...
Об актёрах подробней

Описание:
Весна 1917 года. Солдаты бывшей Дикой дивизии возвращаются в аулы. Анзор, стремянный князя Наурбека, командира Кабардинского полка, застает дома нищету и разорение — его мать и многие другие односельчане попали в кабальные долги к княгине Жансурат. Анзор отправляется к князю и просит вернуть ему землю — ведь он заслонял в бою Наурбека от вражеских пуль. Получив горстку пшена, Анзор возвращается к себе. Последующие встречи с большевиками Кантемиром и Машуко, а затем и самим Кировым убедят Анзора в необходимости борьбы с князьями. Вскоре во главе с Анзором бывшие солдаты Кабардинского полка будут сражаться на стороне большевиков.

Источник: DVB
Качество видео: SATRip
Формат видео: AVI

Видео: 656x496 (4:3), 25 fps, XviD ~ 1443 kbps avg, 0.177 bit/pixel
Аудио: 48 kHz, Dolby Digital AC3 2.0, 192 kbps

Раздача от:
Общее
Полное имя : Lavina.s.gor.1958.SATRip_[New-team]_by_AVP_Studio.avi
Формат : AVI
Формат/Информация : Audio Video Interleave
Размер файла : 1,09 Гбайт
Продолжительность : 1 ч. 34 м.
Общий поток : 1645 Кбит/сек
Программа кодирования : VirtualDubMod 1.5.10.3 | www.virtualdub-fr.org || (build 2550/release)
Библиотека кодирования : VirtualDubMod build 2550/release

Видео
Идентификатор : 0
Формат : MPEG-4 Visual
Профиль формата : Advanced Simple@L5
Параметр BVOP формата : 1
Параметр QPel формата : Нет
Параметр GMC формата : Без точки перехода
Параметр матрицы формата : Выборочная
Идентификатор кодека : XVID
Идентификатор кодека/Подсказка : XviD
Продолжительность : 1 ч. 34 м.
Битрейт : 1443 Кбит/сек
Ширина : 656 пикселей
Высота : 496 пикселей
Соотношение сторон : 4:3
Частота кадров : 25,000 кадров/сек
Цветовое пространство : YUV
Субдискретизация насыщенности : 4:2:0
Битовая глубина : 8 бит
Тип развёртки : Прогрессивная
Метод сжатия : С потерями
Бит/(Пиксели*Кадры) : 0.177
Размер потока : 979 Мбайт (88%)
Библиотека кодирования : XviD 73

Аудио
Идентификатор : 1
Формат : AC-3
Формат/Информация : Audio Coding 3
Параметр Endianness формата : Big
Идентификатор кодека : 2000
Продолжительность : 1 ч. 34 м.
Вид битрейта : Постоянный
Битрейт : 192 Кбит/сек
Каналы : 2 канала
Расположение каналов : Front: L R
Частота : 48,0 КГц
Частота кадров : 31,250 кадров/сек (1536 SPF)
Битовая глубина : 16 бит
Метод сжатия : С потерями
Размер потока : 130 Мбайт (12%)
Выравнивание : Разделение по промежуткам
Продолжительность промежутка : 40 мс. (1,00 видеокадр)
Время предзагрузки промежутка : 500 мс
pb.wtf



Скачать Лавина с гор через торрент http://s56.radikal.ru/i154/1710/ab/933f0f73c92b.png Скачать фильм Лавина с гор через торрент бесплантно в хорошем качестве Описание:Весна 1917 года. Солдаты бывшей Дикой дивизии возвращаются в аулы. Анзор, стремянный князя Наурбека, командира Кабардинского ... 5 10 1
Info! Золотая раздача, скачанное не засчитывается.
Торрент: Зарегистрирован [2017-10-01 07:20] · скачан: 7 раз
Статус: √ проверено
Размер: 1.09 GB
Как cкачать? Как скачать Лавина с гор через торрент | qTorrent

% Раздел Тема Автор DL S | L
Кино СССР [ 1.09 GB ] Лавина с гор [1958 СССР киноповесть SATRip-AVC от AVP Studio] AVP Studio Скачать
1 | 0


>> Регистрируемся здесь <<






Отзывы и комментарии о схеме читаем и пишем здесь: ---> Отзывы и комментарии о схеме

Новые благодарочки в телеграм довольных пользователей:
скриншот   скриншот   скриншот   скриншот   скриншот
    Дорогой пользователь! Огромная просьба, поблагодарите релизера, оцените раздачу и оставьте свои комментарий, если Вы скачали Лавина с гор через торрент бесплатно! Внесите свою лепту в развитие PiratBit!
    Комментировать посты могут только пользователи прошедшие не сложную регистрацию
    Показать сообщения:    

    Лавина с гор через торрент
    Скачать бесплатно Лавина с гор
    Лавина с гор скачать торрент
    Лавина с гор смотреть онлайн
    Cкачать фильм Лавина с гор бесплатно
    Лавина с гор скачать торрент в хорошем качестве
    Лавина с гор смотреть онлайн бесплатно в хорошем качестве


    Вы не можете начинать темы
    Вы не можете отвечать на сообщения
    Вы не можете редактировать свои сообщения
    Вы не можете удалять свои сообщения
    Вы не можете голосовать в опросах
    Вы не можете прикреплять файлы к сообщениям
    Вы можете скачивать файлы