Ссылка на приватное зеркало нашего сайта всего за 1$. Внимание количество ограничено!!!

2 сезон

iTunes

1 сезон

1

2 сезон

2 сезон

iTunes

1 сезон

RePack

30

Ultimate

ВАЖНО

ИГРА 18+

pack

RePack

MK11
pack

Забери бонус

RePack

jed

!!Акция!!

Alien_Rage

RePack

fifa19

RePack

Assassins Creed: Odyssey

RePack

NEED FOR SPEED™ PAYBACK

4 сезон

9 сезон

Бесстыжие 9 сезон

Все сериалы

все сериалы на PB.wtf

RePack

FAR CRY 5
  

Сверхлюди / Inhumans / Сезон 1 / Серии 1-8 из 8 (Роэль Рейн, Крис Фишер, Билл Джирхарт) [2017, Фантастика, боевик, приключения, WEB-DL 1080p] DUB [Невафильм] pb.wtf

Сверхлюди через торрент pb.wtf

Размер: 16.65 GB | Добавлен: 2 года 11 мес. назад | Торрент скачан:30 раз
Скачать  

01-10-2017 14:29 Сверхлюди Скачать торрент  

Сверхлюди / InhumansГод выпуска: 2017
Страна: США
Жанр: Фантастика, боевик, приключения
Продолжительность: 8 x ~ 00:45:00
Перевод: Дубляж - Невафильм
Субтитры: английские

Режиссер: Роэль Рейн, Крис Фишер, Билл Джирхарт

rating

В ролях:

Соня Балморес, Изабель Корниш, Эме Иквуакор, Кен Люн, Майк Мо, Энсон Маунт, Иван Реон, Серинда Свон, Эллен Воглом, Генри Иэн Кьюсик

Описание:

История Королевской семьи, принадлежащей к расе Сверхлюдей. Вследствие военного переворота члены королевской фамилии под предводительством Чёрного Грома вынуждены покинуть свой дом в лунном городе Аттилан и бежать на острова, как в дальнейшем оказывается — Гавайи, где им предстоит спасать не только себя, но и весь мир от гибели.

Качество: WEB-DL 1080p
Формат: MKV
Видео кодек: H.264
Аудио кодек: AC3

Видео: MPEG-4 AVC, ~ 9000, 1920x1080
Аудио#1: Русский (AC3, 2 ch, 192 Кбит/с)
Аудио#2: Английский (AC3, 6 ch, 640 Кбит/с)
скриншот   скриншот   скриншот  

Общее
Уникальный идентификатор : 186293077093244232807780954269049853574 (0x8C26BDD6EA3A2C3E8440299089C69686)
Полное имя : D:\Inhumans (Season 01) 1080\Inhumans.S01E01.1080p.DUB..mkv
Формат : Matroska
Версия формата : Version 4 / Version 2
Размер файла : 2,91 Гбайт
Продолжительность : 42 м. 29 с.
Режим общего битрейта : Переменный
Общий поток : 9799 Кбит/сек
Дата кодирования : UTC 2017-09-30 11:14:07
Программа кодирования : mkvmerge v8.3.0 ('Over the Horizon') 64bit
Библиотека кодирования : libebml v1.3.1 + libmatroska v1.4.2

Видео
Идентификатор : 1
Формат : AVC
Формат/Информация : Advanced Video Codec
Профиль формата : High@L4
Параметр CABAC формата : Да
Параметр ReFrames формата : 4 кадра
Идентификатор кодека : V_MPEG4/ISO/AVC
Продолжительность : 42 м. 29 с.
Вид битрейта : Переменный
Битрейт : 8964 Кбит/сек
Максимальный битрейт : 15,0 Мбит/сек
Ширина : 1920 пикселей
Высота : 1080 пикселей
Соотношение сторон : 16:9
Режим частоты кадров : Постоянный
Частота кадров : 23,976 (24000/1001) кадра/сек
Цветовое пространство : YUV
Субдискретизация насыщенности : 4:2:0
Битовая глубина : 8 бит
Тип развёртки : Прогрессивная
Бит/(Пиксели*Кадры) : 0.180
Размер потока : 2,66 Гбайт (91%)
Default : Да
Forced : Нет
Цветовой диапазон : Limited
Основные цвета : BT.709
Характеристики трансфера : BT.709
Коэффициенты матрицы : BT.709

Аудио #1
Идентификатор : 2
Формат : AC-3
Формат/Информация : Audio Coding 3
Расширение режима : CM (complete main)
Параметр Endianness формата : Big
Идентификатор кодека : A_AC3
Продолжительность : 42 м. 29 с.
Вид битрейта : Постоянный
Битрейт : 192 Кбит/сек
Каналы : 2 канала
Расположение каналов : Front: L R
Частота : 48,0 КГц
Частота кадров : 31,250 кадров/сек (1536 spf)
Метод сжатия : С потерями
Размер потока : 58,3 Мбайт (2%)
Язык : Russian
Default : Да
Forced : Нет

Аудио #2
Идентификатор : 3
Формат : E-AC-3
Формат/Информация : Audio Coding 3
Параметр Endianness формата : Big
Идентификатор кодека : A_EAC3
Продолжительность : 42 м. 29 с.
Вид битрейта : Постоянный
Битрейт : 640 Кбит/сек
Каналы : 6 каналов
Расположение каналов : Front: L C R, Side: L R, LFE
Частота : 48,0 КГц
Частота кадров : 187,500 кадров/сек (256 spf)
Метод сжатия : С потерями
Размер потока : 194 Мбайт (7%)
Язык : English
Default : Нет
Forced : Нет

Текст
Идентификатор : 4
Формат : UTF-8
Идентификатор кодека : S_TEXT/UTF8
Идентификатор кодека/Информация : UTF-8 Plain Text
Продолжительность : 42 м. 26 с.
Битрейт : 49 бит/сек
Count of elements : 696
Размер потока : 15,5 Кбайт (0%)
Язык : English
Default : Нет
Forced : Нет

Внимание! Раздача ведётся путём добавления новых серий; при каждом добавлении создаётся новый торрент. Чтобы начать докачку новой серии, пользователям необходимо сделать следующее:
(1) остановить скачивание,
(2) удалить старый торрент-файл у себя из клиента (старые серии удалять не надо),
(3) скачать новый торрент-файл из раздачи и запустить его у себя в клиенте вместо старого, при этом указать клиенту путь в старую папку, куда и должно происходить скачивание новых серий.
pb.wtf



Скачать Сверхлюди через торрент http://s019.radikal.ru/i629/1709/a8/b75599a2b729.jpg Скачать фильм Сверхлюди через торрент бесплантно в хорошем качестве Описание: История Королевской семьи, принадлежащей к расе Сверхлюдей. Вследствие военного переворота члены королевской фамилии под ... 8.9 10 7
Info! Золотая раздача, скачанное не засчитывается.
Торрент: Зарегистрирован [2017-12-06 18:29] · скачан: 30 раз
Статус: √ проверено
Размер: 16.65 GB
Как cкачать? Как скачать Сверхлюди через торрент | qTorrent

% Раздел Тема Автор DL S | L
Зарубежные сериалы [ 4.04 GB ] Сверхлюди / Нелюди / Inhumans / Сезон 1 / Серии 1-8 из 8 [2017 WEB-DLRip] MVO [LostFilm] bober100 Скачать
1 | 0
Зарубежные сериалы [ 14.09 GB ] Сверхлюди / Нелюди / Marvel's Inhumans / Сезон: 1 / Серии 1-8 из 8 [2017 WEBRip 720p] MVO [BaibaKo] GEKADOL Скачать
1 | 0
Зарубежные сериалы [ 11.46 GB ] Сверхлюди / Нелюди / Inhumans / Сезон 1 / Серии 1-8 из 8 [2017 WEB-DL 720p] MVO [Jaskier] bober100 Скачать
1 | 0
Зарубежные сериалы [ 14.08 GB ] Сверхлюди / Нелюди / Inhumans / Сезон 1 / Серии 1-8 из 8 [2017 WEB-DL 1080p] MVO [Jaskier] bober100 Скачать
1 | 0
Зарубежные сериалы [ 4.21 GB ] Сверхлюди / Нелюди / Inhumans / Сезон 1 / Серии 1-8 из 8 [2017 WEB-DLRip] MVO [Jaskier] bober100 Скачать
1 | 0


Последний раз редактировалось: bober100 (2017-12-06 18:29), всего редактировалось 4 раз(а)

28-11-2019 20:33  

Отключить всю рекламу на сайте

08-10-2017 19:04 Сверхлюди Скачать торрент  

Ждём сериал "Ingirl" - супердевушка в озвучке этих же ребят. А заодно и Batman vs Inman.pb.wtf



    Дорогой пользователь! Огромная просьба, поблагодарите релизера, оцените раздачу и оставьте свои комментарий, если Вы скачали Сверхлюди через торрент бесплатно! Внесите свою лепту в развитие PiratBit!
    Комментировать посты могут только пользователи прошедшие не сложную регистрацию
    Показать сообщения:    

    Сверхлюди через торрент
    Скачать бесплатно Сверхлюди
    Сверхлюди скачать торрент
    Сверхлюди смотреть онлайн
    Cкачать фильм Сверхлюди бесплатно
    Сверхлюди скачать торрент в хорошем качестве
    Сверхлюди смотреть онлайн бесплатно в хорошем качестве


    Вы не можете начинать темы
    Вы не можете отвечать на сообщения
    Вы не можете редактировать свои сообщения
    Вы не можете удалять свои сообщения
    Вы не можете голосовать в опросах
    Вы не можете прикреплять файлы к сообщениям
    Вы можете скачивать файлы