Ссылка на приватное зеркало нашего сайта всего за 1$. Внимание количество ограничено!!!

2 сезон

iTunes

1 сезон

1

2 сезон

2 сезон

iTunes

1 сезон

RePack

30

Ultimate

ВАЖНО

ИГРА 18+

pack

RePack

MK11
pack

Забери бонус

RePack

jed

!!Акция!!

Alien_Rage

RePack

fifa19

RePack

Assassins Creed: Odyssey

RePack

NEED FOR SPEED™ PAYBACK

4 сезон

9 сезон

Бесстыжие 9 сезон

Все сериалы

все сериалы на PB.wtf

RePack

FAR CRY 5
  

Изгоняющий дьявола / The Exorcist / Сезон 2 / Серия 1-10 из 10 (Брэннон Брага, Джон Кассар, Джеймс Л. Конуэй) [2017, Ужасы, триллер, WEBRip 720p] [MVO] (Jaskier) pb.wtf

Изгоняющий дьявола через торрент pb.wtf

Размер: 10.11 GB | Добавлен: 2 года 10 мес. назад | Торрент скачан:12 раз
Скачать  

01-10-2017 18:59 Изгоняющий дьявола Скачать торрент  

Изгоняющий дьявола | The Exorcist

Год выпуска: 2017
Страна:США, Morgan Creek Productions, New Neighborhood, 20th Century Fox Television
Жанр: Ужасы, триллер
Продолжительность: ~ 00:45:00
Перевод: Профессиональный (многоголосый закадровый) | Jaskier

Режиссёр: Джефф Дэвис

В ролях: Альфонсо Эррера, Бен Дэниэлс, Ханна Касулка, Джина Дэвис, Брианна Хоуи, Алан Рак, Музам Маккар, Френсис Гуинан, Мелисса Рассел, Адам Биттерман

Описание: Одна из самых популярных тем в мировом кинематографе впервые воплощена в сериале. Снятый по мотивам знаменитого романа Уильяма Блэтти фильм “Изгоняющий дьявола” Уильяма Фридкина, признан чуть ли не самым страшным за всю историю. Одноименная телеверсия обещает быть не менее пугающей. Тем более, что вселять страх будут порциями, а не разом. И хотя источники и атмосфера те же, это не римейк, а новая история с неизвестными персонажами. В центре внимания два священнослужителя — каждый со своей точкой зрения, — занимающиеся случаем демонической одержимости.



Качество: WEBRip 720p
Формат: MKV
Видео: 1280x720 (16:9) | X264 | ~2613 kbps | 23.976 fps
Аудио 1: AC3, 48,0 КГц, 6 ch, 384 kbps - [RUS]
Аудио 2: E-AC3, 48,0 КГц, 6 ch, 640 kbps - [ENG]
Субтитры: Английские
Переведено и озвучено: студией Jaskier
Общее
Уникальный идентификатор                 : 190497728880568573990138772140430055836 (0x8F50872D8E6D4DD3BEEF62361FE5D99C)
Полное имя                               : D:\Jaskier\The.Exorcist.Season 2 (WEBRip l 720p l Jaskier)\The.Exorcist.S02E01.WEBRip.720p.Jaskier.Rus.Eng.mkv
Формат                                   : Matroska
Версия формата                           : Version 4 / Version 2
Размер файла                             : 1,09 Гбайт
Продолжительность                        : 42 м. 53 с.
Режим общего битрейта                    : Переменный
Общий поток                              : 3639 Кбит/сек
Дата кодирования                         : UTC 2017-10-01 17:32:34
Программа кодирования                    : mkvmerge v15.0.0 ('Duel with the Devil') 64-bit
Библиотека кодирования                   : libebml v1.3.5 + libmatroska v1.4.5

Видео
Идентификатор                            : 1
Формат                                   : AVC
Формат/Информация                        : Advanced Video Codec
Профиль формата                          : High@L3.1
Параметр CABAC формата                   : Да
Параметр RefFrames формата               : 5 кадров
Идентификатор кодека                     : V_MPEG4/ISO/AVC
Продолжительность                        : 42 м. 53 с.
Вид битрейта                             : Переменный
Битрейт                                  : 2613 Кбит/сек
Максимальный битрейт                     : 4500 Кбит/сек
Ширина                                   : 1280 пикселей
Высота                                   : 720 пикселей
Соотношение сторон                       : 16:9
Режим частоты кадров                     : Постоянный
Частота кадров                           : 23,976 (24000/1001) кадра/сек
Цветовое пространство                    : YUV
Субдискретизация насыщенности            : 4:2:0
Битовая глубина                          : 8 бит
Тип развёртки                            : Прогрессивная
Бит/(Пиксели*Кадры)                      : 0.118
Размер потока                            : 802 Мбайт (72%)
Default                                  : Да
Forced                                   : Нет
Цветовой диапазон                        : Limited
Основные цвета                           : BT.709
Характеристики трансфера                 : BT.709
Коэффициенты матрицы                     : BT.709

Аудио #1
Идентификатор                            : 2
Формат                                   : AC-3
Формат/Информация                        : Audio Coding 3
Параметр Endianness формата              : Big
Идентификатор кодека                     : A_AC3
Продолжительность                        : 42 м. 53 с.
Вид битрейта                             : Постоянный
Битрейт                                  : 384 Кбит/сек
Каналы                                   : 6 каналов
Расположение каналов                     : Front: L C R, Side: L R, LFE
Частота                                  : 48,0 КГц
Частота кадров                           : 31,250 кадров/сек (1536 SPF)
Битовая глубина                          : 16 бит
Метод сжатия                             : С потерями
Размер потока                            : 118 Мбайт (11%)
Заголовок                                : Jaskier
Язык                                     : Russian
ServiceKind/String                       : Complete Main
Default                                  : Да
Forced                                   : Нет

Аудио #2
Идентификатор                            : 3
Формат                                   : E-AC-3
Формат/Информация                        : Enhanced Audio Coding 3
Параметр Endianness формата              : Big
Идентификатор кодека                     : A_EAC3
Продолжительность                        : 42 м. 53 с.
Вид битрейта                             : Постоянный
Битрейт                                  : 640 Кбит/сек
Каналы                                   : 6 каналов
Расположение каналов                     : Front: L C R, Side: L R, LFE
Частота                                  : 48,0 КГц
Частота кадров                           : 187,500 кадров/сек (256 SPF)
Метод сжатия                             : С потерями
Размер потока                            : 196 Мбайт (18%)
Язык                                     : English
ServiceKind/String                       : Complete Main
Default                                  : Нет
Forced                                   : Нет

Текст
Идентификатор                            : 4
Формат                                   : UTF-8
Идентификатор кодека                     : S_TEXT/UTF8
Идентификатор кодека/Информация          : UTF-8 Plain Text
Продолжительность                        : 42 м. 50 с.
Битрейт                                  : 63 бит/сек
ElementCount                             : 747
Размер потока                            : 19,8 Кбайт (0%)
Язык                                     : English
Default                                  : Нет
Forced                                   : Нет
скриншот  скриншот  скриншот  
Когда раздача ведётся путём добавления новых серий, при каждом добавлении создётся новый торрент. Чтобы начать докачку новой серии, пользователям необходимо сделать следующее:
(1) остановить скачивание,
(2) удалить старый торрент у себя из клиента (старые серии удалять не надо),
(3) скачать новый торрент и запустить его у себя в клиенте вместо старого, при этом указать клиенту путь в старую папку, куда и должно происходить скачивание новых серий.
Ваш клиент при этом должен произвести хеширование (проверку) старой папки (если не производит сам - помогите ему сделать это), и будет докачивать только те серии, которых у вас ещё нет. Старые серии при этом не удаляются, а продолжают раздаваться!
Eсли вы уже удалили старые серии, то предотвратить повторную закачку старых серий можно, отжав галочку в соответсвующих местах при запуске нового торрента. По возможности, желательно не удалять старые серии как можно дольше, чтобы релизёр не столько продолжал раздавать старые серии, а смог сконцентрироваться на новых.
pb.wtf



Скачать Изгоняющий дьявола через торрент http://i89.fastpic.ru/big/2017/1001/b8/47324411b92882927b55d406b935a4b8.png Скачать фильм Изгоняющий дьявола через торрент бесплантно в хорошем качестве Описание: Одна из самых популярных тем в мировом кинематографе впервые воплощена в сериале. Снятый по мотивам знаменитого романа Уильяма ... 10 10 4
Info! Серебряная раздача, засчитывается только 50% скачанного.
Торрент: Зарегистрирован [2018-01-18 10:45] · скачан: 12 раз
Статус: √ проверено
Размер: 10.11 GB
Как cкачать? Как скачать Изгоняющий дьявола через торрент | qTorrent

% Раздел Тема Автор DL S | L
Зарубежные сериалы [ 10.91 GB ] Изгоняющий дьявола / Экзорцист / The Exorcist / Сезон: 2 / Серии 1-10 из 10 [2017 WEBRip 720p] MVO [BaibaKo] GEKADOL Скачать
1 | 0
Зарубежные сериалы [ 5.75 GB ] Изгоняющий дьявола / The Exorcist / Сезон 2 / Серии 1-10 из 10 [2017 WEB-DLRip] MVO [SDI Media] bober100 Скачать
2 | 0
Зарубежные сериалы [ 27.68 GB ] Изгоняющий дьявола / The Exorcist / Сезон 2 / Серии 1-10 из 10 [2017 WEB-DL 1080p] MVO [SDI Media] bober100 Скачать
1 | 0
Зарубежные сериалы [ 5.47 GB ] Изгоняющий дьявола / The Exorcist / Сезон 2 / Серия 1-10 из 10 [2017 WEBRip] [MVO] killermax2013 Скачать
1 | 0
Зарубежные сериалы [ 5.42 GB ] Изгоняющий дьявола / Экзорцист / The Exorcist / Сезон: 2 / Серии 1-10 из 10 [2017 WEB-DLRip] MVO [NewStudio] GEKADOL Скачать
1 | 0


Последний раз редактировалось: killermax2013 (2018-01-18 10:45), всего редактировалось 1 раз

28-11-2019 20:33  

Отключить всю рекламу на сайте

07-11-2017 20:22 Изгоняющий дьявола Скачать торрент  

+2-5pb.wtf



    Дорогой пользователь! Огромная просьба, поблагодарите релизера, оцените раздачу и оставьте свои комментарий, если Вы скачали Изгоняющий дьявола через торрент бесплатно! Внесите свою лепту в развитие PiratBit!
    Комментировать посты могут только пользователи прошедшие не сложную регистрацию
    Показать сообщения:    

    Изгоняющий дьявола через торрент
    Скачать бесплатно Изгоняющий дьявола
    Изгоняющий дьявола скачать торрент
    Изгоняющий дьявола смотреть онлайн
    Cкачать фильм Изгоняющий дьявола бесплатно
    Изгоняющий дьявола скачать торрент в хорошем качестве
    Изгоняющий дьявола смотреть онлайн бесплатно в хорошем качестве


    Вы не можете начинать темы
    Вы не можете отвечать на сообщения
    Вы не можете редактировать свои сообщения
    Вы не можете удалять свои сообщения
    Вы не можете голосовать в опросах
    Вы не можете прикреплять файлы к сообщениям
    Вы можете скачивать файлы