Ссылка на приватное зеркало нашего сайта всего за 1$. Внимание количество ограничено!!!

2 сезон

iTunes

1 сезон

1

2 сезон

2 сезон

iTunes

1 сезон

RePack

30

Ultimate

ВАЖНО

ИГРА 18+

pack

RePack

MK11
pack

Забери бонус

RePack

jed

!!Акция!!

Alien_Rage

RePack

fifa19

RePack

Assassins Creed: Odyssey

RePack

NEED FOR SPEED™ PAYBACK

4 сезон

9 сезон

Бесстыжие 9 сезон

Все сериалы

все сериалы на PB.wtf

RePack

FAR CRY 5
  

Изгоняющий дьявола / The Exorcist / Сезон 2 / Серия 1-10 из 10 (Брэннон Брага, Джон Кассар, Джеймс Л. Конуэй) [2017, Ужасы, триллер, WEBRip] [MVO] (Jaskier) pb.wtf

Изгоняющий дьявола через торрент pb.wtf

Размер: 5.47 GB | Добавлен: 2 года 10 мес. назад | Торрент скачан:32 раза
Скачать  

01-10-2017 19:02 Изгоняющий дьявола Скачать торрент  

Изгоняющий дьявола | The Exorcist

Год выпуска: 2017
Страна:США, Morgan Creek Productions, New Neighborhood, 20th Century Fox Television
Жанр: Ужасы, триллер
Продолжительность: ~ 00:45:00
Перевод: Профессиональный (многоголосый закадровый) | Jaskier

Режиссёр: Джефф Дэвис

В ролях:Альфонсо Эррера, Бен Дэниэлс, Ханна Касулка, Джина Дэвис, Брианна Хоуи, Алан Рак, Музам Маккар, Френсис Гуинан, Мелисса Рассел, Адам Биттерман

Описание: Одна из самых популярных тем в мировом кинематографе впервые воплощена в сериале. Снятый по мотивам знаменитого романа Уильяма Блэтти фильм “Изгоняющий дьявола” Уильяма Фридкина, признан чуть ли не самым страшным за всю историю. Одноименная телеверсия обещает быть не менее пугающей. Тем более, что вселять страх будут порциями, а не разом. И хотя источники и атмосфера те же, это не римейк, а новая история с неизвестными персонажами. В центре внимания два священнослужителя — каждый со своей точкой зрения, — занимающиеся случаем демонической одержимости.



Качество: WEBRip
Формат: AVI
Видео: XviD, ~ 1500 kbps, 720x400 (16:9), 23.976 fps
Аудио 1: MP3, 48,0 КГц, 2 ch, 128 kbps - Rus
Аудио 2: MP3, 48,0 КГц, 2 ch, 128 kbps - Eng
Субтитры: отсутствуют
Переведено и озвучено: студией Jaskier
скриншот  скриншот  скриншот  
General
Complete name : E:\The.Exorcist.Season 2 (WEBRip l 400p l Jaskier)\The.Exorcist.S02E01.WEBRip.Jaskier.Rus.Eng.avi
Format : AVI
Format/Info : Audio Video Interleave
File size : 543 MiB
Duration : 42mn 53s
Overall bit rate : 1 769 Kbps
Writing application : VirtualDubMod 1.5.10.2 (build 2540/release)
Writing library : VirtualDubMod build 2540/release

Video
ID : 0
Format : MPEG-4 Visual
Format profile : Advanced Simple@L5
Format settings, BVOP : 2
Format settings, QPel : No
Format settings, GMC : No warppoints
Format settings, Matrix : Default (MPEG)
Codec ID : XVID
Codec ID/Hint : XviD
Duration : 42mn 53s
Bit rate : 1 432 Kbps
Width : 720 pixels
Height : 400 pixels
Display aspect ratio : 16:9
Frame rate : 23.976 fps
Color space : YUV
Chroma subsampling : 4:2:0
Bit depth : 8 bits
Scan type : Progressive
Compression mode : Lossy
Bits/(Pixel*Frame) : 0.207
Stream size : 439 MiB (81%)
Writing library : XviD 1.2.1 (UTC 2008-12-04)

Audio #1
ID : 1
Format : MPEG Audio
Format version : Version 1
Format profile : Layer 3
Mode : Joint stereo
Mode extension : MS Stereo
Codec ID : 55
Codec ID/Hint : MP3
Duration : 42mn 53s
Bit rate mode : Constant
Bit rate : 128 Kbps
Channel(s) : 2 channels
Sampling rate : 48.0 KHz
Compression mode : Lossy
Stream size : 39.3 MiB (7%)
Alignment : Aligned on interleaves

Audio #2
ID : 2
Format : MPEG Audio
Format version : Version 1
Format profile : Layer 3
Mode : Joint stereo
Mode extension : MS Stereo
Codec ID : 55
Codec ID/Hint : MP3
Duration : 42mn 53s
Bit rate mode : Constant
Bit rate : 128 Kbps
Channel(s) : 2 channels
Sampling rate : 48.0 KHz
Compression mode : Lossy
Stream size : 39.3 MiB (7%)
Alignment : Aligned on interleaves
Когда раздача ведётся путём добавления новых серий, при каждом добавлении создётся новый торрент. Чтобы начать докачку новой серии, пользователям необходимо сделать следующее:
(1) остановить скачивание,
(2) удалить старый торрент у себя из клиента (старые серии удалять не надо),
(3) скачать новый торрент и запустить его у себя в клиенте вместо старого, при этом указать клиенту путь в старую папку, куда и должно происходить скачивание новых серий.
Ваш клиент при этом должен произвести хеширование (проверку) старой папки (если не производит сам - помогите ему сделать это), и будет докачивать только те серии, которых у вас ещё нет. Старые серии при этом не удаляются, а продолжают раздаваться!
Eсли вы уже удалили старые серии, то предотвратить повторную закачку старых серий можно, отжав галочку в соответсвующих местах при запуске нового торрента. По возможности, желательно не удалять старые серии как можно дольше, чтобы релизёр не столько продолжал раздавать старые серии, а смог сконцентрироваться на новых.
pb.wtf



Скачать Изгоняющий дьявола через торрент http://i89.fastpic.ru/big/2017/1001/b8/47324411b92882927b55d406b935a4b8.png Скачать фильм Изгоняющий дьявола через торрент бесплантно в хорошем качестве Описание: Одна из самых популярных тем в мировом кинематографе впервые воплощена в сериале. Снятый по мотивам знаменитого романа Уильяма ... 10 10 5
Торрент: Зарегистрирован [2018-01-18 10:46] · скачан: 32 раз
Статус: √ проверено
Размер: 5.47 GB
Как cкачать? Как скачать Изгоняющий дьявола через торрент | qTorrent

% Раздел Тема Автор DL S | L
Зарубежные сериалы [ 10.91 GB ] Изгоняющий дьявола / Экзорцист / The Exorcist / Сезон: 2 / Серии 1-10 из 10 [2017 WEBRip 720p] MVO [BaibaKo] GEKADOL Скачать
1 | 0
Зарубежные сериалы [ 5.75 GB ] Изгоняющий дьявола / The Exorcist / Сезон 2 / Серии 1-10 из 10 [2017 WEB-DLRip] MVO [SDI Media] bober100 Скачать
1 | 0
Зарубежные сериалы [ 27.68 GB ] Изгоняющий дьявола / The Exorcist / Сезон 2 / Серии 1-10 из 10 [2017 WEB-DL 1080p] MVO [SDI Media] bober100 Скачать
1 | 0
Зарубежные сериалы [ 10.11 GB ] Изгоняющий дьявола / The Exorcist / Сезон 2 / Серия 1-10 из 10 [2017 WEBRip 720p] [MVO] killermax2013 Скачать
1 | 0
Зарубежные сериалы [ 5.42 GB ] Изгоняющий дьявола / Экзорцист / The Exorcist / Сезон: 2 / Серии 1-10 из 10 [2017 WEB-DLRip] MVO [NewStudio] GEKADOL Скачать
1 | 0


Последний раз редактировалось: killermax2013 (2018-01-18 10:46), всего редактировалось 1 раз

28-11-2019 20:33  

Отключить всю рекламу на сайте

07-11-2017 20:20 Изгоняющий дьявола Скачать торрент  

+2-5pb.wtf



    Дорогой пользователь! Огромная просьба, поблагодарите релизера, оцените раздачу и оставьте свои комментарий, если Вы скачали Изгоняющий дьявола через торрент бесплатно! Внесите свою лепту в развитие PiratBit!
    Комментировать посты могут только пользователи прошедшие не сложную регистрацию
    Показать сообщения:    

    Изгоняющий дьявола через торрент
    Скачать бесплатно Изгоняющий дьявола
    Изгоняющий дьявола скачать торрент
    Изгоняющий дьявола смотреть онлайн
    Cкачать фильм Изгоняющий дьявола бесплатно
    Изгоняющий дьявола скачать торрент в хорошем качестве
    Изгоняющий дьявола смотреть онлайн бесплатно в хорошем качестве


    Вы не можете начинать темы
    Вы не можете отвечать на сообщения
    Вы не можете редактировать свои сообщения
    Вы не можете удалять свои сообщения
    Вы не можете голосовать в опросах
    Вы не можете прикреплять файлы к сообщениям
    Вы можете скачивать файлы