Ссылка на приватное зеркало всего за 1$. Внимание количество ограничено!!!

OK

1+1

iTunes

мы

OK

1

WEB-DLRip

Джокер

Пифагор

Ведьмак / The Witcher сериал

Лицензия

ПШазам

ОК

Оно 2

iTunes

30
pack

Вам бонус

ВАЖНО

!!Акция!!

Alien_RageХит недели

RePack

Resident Evil 21

ИГРА 18+

pack

RePack

jed

RePack

fifa19

RePack

Assassins Creed: Odyssey

RePack

NEED FOR SPEED™ PAYBACK

4 сезон

9 сезон

Бесстыжие 9 сезон

Все сериалы

все сериалы на PB.wtf

RePack

FAR CRY 5
  

Эль Чапо / El Chapo / Сезон: 2 / Серии 1-12 из 12 (Эрнесто Контрерас, Хосе Мануэль Кравиотто) [2017, США, Драма, криминал, биография, WEBDL-Rip 720p] MVO [NewStudio] pb.wtf

Эль Чапо через торрент pb.wtf

Размер: 17.71 GB | Добавлен: 2 года 1 мес. назад | Торрент скачан:37 раз
Скачать  

02-10-2017 02:10 Эль Чапо Скачать торрент  

Эль Чапо / El Chapo


  • Год выпуска: 2017
  • Жанр: Драма, криминал, биография
  • Продолжительность: ~ 00:50:00 (Серия)
  • Перевод: Профессиональный многоголосый
  • Субтитры: русские (Forced),
  • Режиссер: Эрнесто Контрерас / Ernesto Contreras, Хосе Мануэль Кравиотто / José Manuel Cravioto
  • В ролях:

    Умберто Бусто (Don Sol), Марко Де Ла О (Joaquin «El Chapo» Guzman), David Ojalvo (Jefe DEA), Алехандро Агиляр (Tono)


  • История жизни известного наркобарона Эль Чапо с момента начала его карьеры в в 1980, когда он начал работать на картель Гвадалахары, который долгое время скрывался от правосудия. В сериале «Эль Чапо» рассказывается о жизни известного преступника, который много лет избегал наказания, потом был пойман и сумел сбежать из тюрьмы. Наркобарону предъявляли обвинения по многочисленным статьям уголовного кодекса, в том числе он проходил подозреваемым по делам об убийстве и похищении людей.
  • Рейтинг:



  • Качество: WEBDL-Rip 720p
  • Формат: :MKV
  • Видео кодек: AVC
  • Аудио кодек: AC3, AAC (LC)
  • Видео: 4421 Кбит/сек, 1280*720 (16:9), в 29,970 (30000/1001) кадров/сек, AVC
  • Аудио №1: Русский 192 Кбит/сек, 48,0 КГц, 16 бит, 2 канала, AC-3 |[NewStudio]|
  • Аудио №2: Испанский 89,3 Кбит/сек, 44,1 КГц, 2 канала, AAC (LC)

    Внимание! Раздача ведётся путём добавления новых серий; при каждом добавлении создаётся новый торрент. Чтобы начать докачку новой серии, пользователям необходимо сделать следующее:
    (1) остановить скачивание,
    (2) удалить старый торрент у себя из клиента (старые серии удалять не надо),
    (3) скачать новый торрент и запустить его у себя в клиенте вместо старого, при этом указать клиенту путь в старую папку куда и должно происходить скачивание новых серий.
    Ваш клиент при этом должен произвести хеширование (проверку) старой папки (если не производит сам - помогите ему сделать это), и будет докачивать только те серии которых у вас ещё нет. Старые серии при этом не удаляются, а продолжают раздаваться!
    Eсли вы уже удалили старые серии, то предотвратить повторную закачку старых серий можно, отжав галочку в соответствующих местах при запуске нового торрента. По возможности, желательно не удалять старые серии как можно дольше чтобы релизёр не столько продолжал раздавать старые серии, а смог сконцентрироваться на новых.
    Общее
    Уникальный идентификатор : 223008342781995367566745552341422505540 (0xA7C5D8328A9E7EFA8E4AC35FD16AFE44)
    Полное имя : G:\Эль Чапо (El Chapo2)\El.Chapo.s02e01.WEBDL.720p.NewStudio.TV.mkv
    Формат : Matroska
    Версия формата : Version 4 / Version 2
    Размер файла : 1,72 Гбайт
    Продолжительность : 52 м. 20 с.
    Общий поток : 4705 Кбит/сек
    Дата кодирования : UTC 2017-10-01 22:19:35
    Программа кодирования : mkvmerge v8.2.0 ('World of Adventure') 32bit
    Библиотека кодирования : libebml v1.3.1 + libmatroska v1.4.2

    Видео
    Идентификатор : 1
    Формат : AVC
    Формат/Информация : Advanced Video Codec
    Профиль формата : High@L3.1
    Параметр CABAC формата : Да
    Параметр RefFrames формата : 1 кадр
    Идентификатор кодека : V_MPEG4/ISO/AVC
    Продолжительность : 52 м. 20 с.
    Битрейт : 4421 Кбит/сек
    Ширина : 1280 пикселей
    Высота : 720 пикселей
    Соотношение сторон : 16:9
    Режим частоты кадров : Постоянный
    Частота кадров : 29,970 (30000/1001) кадров/сек
    Цветовое пространство : YUV
    Субдискретизация насыщенности : 4:2:0
    Битовая глубина : 8 бит
    Тип развёртки : Прогрессивная
    Бит/(Пиксели*Кадры) : 0.160
    Размер потока : 1,62 Гбайт (94%)
    Default : Да
    Forced : Нет

    Аудио #1
    Идентификатор : 2
    Формат : AC-3
    Формат/Информация : Audio Coding 3
    Параметр Endianness формата : Big
    Идентификатор кодека : A_AC3
    Продолжительность : 52 м. 20 с.
    Вид битрейта : Постоянный
    Битрейт : 192 Кбит/сек
    Каналы : 2 канала
    Расположение каналов : Front: L R
    Частота : 48,0 КГц
    Частота кадров : 31,250 кадров/сек (1536 SPF)
    Битовая глубина : 16 бит
    Метод сжатия : С потерями
    Размер потока : 71,9 Мбайт (4%)
    Заголовок : NewStudio.TV
    Язык : Russian
    ServiceKind/String : Complete Main
    Default : Да
    Forced : Нет

    Аудио #2
    Идентификатор : 3
    Формат : AAC
    Формат/Информация : Advanced Audio Codec
    Профиль формата : LC
    Идентификатор кодека : A_AAC
    Продолжительность : 52 м. 20 с.
    Битрейт : 89,3 Кбит/сек
    Каналы : 2 канала
    Расположение каналов : Front: L R
    Частота : 44,1 КГц
    Частота кадров : 43,066 кадра/сек (1024 SPF)
    Метод сжатия : С потерями
    Размер потока : 33,4 Мбайт (2%)
    Язык : Spanish
    Default : Нет
    Forced : Нет

    Текст
    Идентификатор : 4
    Формат : ASS
    Идентификатор кодека : S_TEXT/ASS
    Идентификатор кодека/Информация : Advanced Sub Station Alpha
    Продолжительность : 48 м. 25 с.
    Битрейт : 7 бит/сек
    ElementCount : 26
    Метод сжатия : Без потерь
    Размер потока : 2,73 Кбайт (0%)
    Заголовок : Forced
    Язык : Russian
    Default : Да
    Forced : Да





    Скриншоты:
    скриншот   скриншот   скриншот   скриншот   скриншот   скриншот   скриншот  
    скриншот  

    Раздача ведётся путём добавления новых серий. Добавлена 12 серия (19.12.2017).Просьба перекачать торрент файл.

    pb.wtf



  • Скачать Эль Чапо через торрент http://pic1.kartinco.top/images/11/wg2r2.jpg Скачать фильм Эль Чапо через торрент бесплантно в хорошем качестве qw.png История жизни известного наркобарона Эль Чапо с момента начала его карьеры в в 1980, когда он начал работать на картель ... 9.5 10 20
    Info! Золотая раздача, скачанное не засчитывается.
    Торрент: Зарегистрирован [2017-12-18 23:21] · скачан: 37 раз
    Статус: √ проверено
    Размер: 17.71 GB
    Как cкачать? Как скачать Эль Чапо через торрент | qTorrent

    % Раздел Тема Автор DL S | L
    Зарубежные сериалы [ 6.74 GB ] Эль Чапо / El Chapo / Сезон 2 / Серии 1-12 из 12 [2017 биография WEBRip] MVO [NewStudio] bober100 Скачать
    1 | 0


    Последний раз редактировалось: GEKADOL (2017-12-18 23:19), всего редактировалось 11 раз(а)

    28-11-2019 20:33  

    Отключить всю рекламу на сайте

    06-11-2017 04:40 Эль Чапо Скачать торрент  

    Кто на раздаче? Пиров нет.pb.wtf



    13-11-2017 06:25 Эль Чапо Скачать торрент  

    Как сериал народ ?pb.wtf



    22-11-2017 22:58 Эль Чапо Скачать торрент  

    хороший сериал если смотрел про пабло эскабаро то и этот зайдет на ура !!! мне нравятся такиеpb.wtf



    26-11-2017 23:35 Эль Чапо Скачать торрент  

    marik31 писал(а):

    хороший сериал если смотрел про пабло эскабаро то и этот зайдет на ура !!! мне нравятся такие

    Тоже смотрю, нравится. pb.wtf



    27-11-2017 00:29 Эль Чапо Скачать торрент  

    Раздача ведётся путём добавления новых серий. Добавлена 11 серия (27.11.2017).Просьба перекачать торрент файл. WTF ??????? 11 серия pb.wtf



    27-11-2017 00:49 Эль Чапо Скачать торрент  

    Frolov писал(а):

    Раздача ведётся путём добавления новых серий. Добавлена 11 серия (27.11.2017).Просьба перекачать торрент файл. WTF ??????? 11 серия

    10 конечно) Тыкнул не туда)pb.wtf



    27-11-2017 02:30 Эль Чапо Скачать торрент  

    GEKADOL писал(а):

    Frolov писал(а):

    Раздача ведётся путём добавления новых серий. Добавлена 11 серия (27.11.2017).Просьба перекачать торрент файл. WTF ??????? 11 серия

    10 конечно) Тыкнул не туда)

    Я шапку измениpb.wtf



    18-12-2017 23:25 Эль Чапо Скачать торрент  

    Ну вот и финал!!!! pb.wtf



    07-05-2018 03:59 Эль Чапо Скачать торрент  

    Ребята, помогите докачать-)pb.wtf



      Дорогой пользователь! Огромная просьба, поблагодарите релизера, оцените раздачу и оставьте свои комментарий, если Вы скачали Эль Чапо через торрент бесплатно! Внесите свою лепту в развитие PiratBit!
      Комментировать посты могут только пользователи прошедшие не сложную регистрацию
      Показать сообщения:    

      Эль Чапо через торрент
      Скачать бесплатно Эль Чапо
      Эль Чапо скачать торрент
      Эль Чапо смотреть онлайн
      Cкачать фильм Эль Чапо бесплатно
      Эль Чапо скачать торрент в хорошем качестве
      Эль Чапо смотреть онлайн бесплатно в хорошем качестве


      Вы не можете начинать темы
      Вы не можете отвечать на сообщения
      Вы не можете редактировать свои сообщения
      Вы не можете удалять свои сообщения
      Вы не можете голосовать в опросах
      Вы не можете прикреплять файлы к сообщениям
      Вы можете скачивать файлы