Ссылка на приватное зеркало нашего сайта всего за 1$. Внимание количество ограничено!!!

2 сезон

iTunes

1 сезон

1

iTunes

iTunes

iTunes

1 сезон

RePack

30

ИГРА 18+

pack

ВАЖНО

!!Акция!!

Alien_RageХит недели

RePack

MK11
pack

Забери бонус

RePack

jed

!!Акция!!

Alien_Rage

RePack

fifa19

RePack

Assassins Creed: Odyssey

RePack

NEED FOR SPEED™ PAYBACK

4 сезон

9 сезон

Бесстыжие 9 сезон

Все сериалы

все сериалы на PB.wtf

RePack

FAR CRY 5
  

Оружейный барон / Lord of War (Эндрю Никкол) [2005, триллер, драма, криминал, BDRip 1080p by msltel] DUB, 2 x DVO, AVO, VO pb.wtf

Оружейный барон через торрент pb.wtf

Размер: 18.76 GB | Добавлен: 3 года назад | Торрент скачан:75 раз
Скачать  

02-10-2017 10:10 Оружейный барон Скачать торрент  

Название: Оружейный барон
Оригинальное название: Lord of War
Год выпуска: 2005
Страна: США, Германия, Франция
Жанр: триллер, драма, криминал
Продолжительность: 02:01:58
Перевод: дублированный, профессиональный двухголосый, авторский, любительский одноголосый

Режиссер: Эндрю Никкол
В ролях: Николас Кейдж, Бриджет Мойнэхэн, Джаред Лето, Итэн Хоук, Иэн Холм, Сэмми Ротиби, Имонн Уолкер, Дэвид Хармен, Евгений Лазарев, Джаспер Ленц, Стивен Грегор, Кобус Маркс, Стефан Де Абреу, Джереми Кратчли, Шаке Тухманян, Таня Финч, Лиз Джуст, Ясин Абдулла, Дональд Сазерленд

О фильме: Родители братьев Орловых, старшего Юрия и младшего Виталия, покинули Украину и обосновались в Америке на Брайтон-Бич, где открыли маленький ресторанчик. Дети же не рвались идти по родительским стопам. Юрий, раздумывая, чем заниматься, пришёл к выводу: самое выгодное — торговать оружием. Потому что в мире, переполненном агрессией, оружие никогда не бывает лишним. Оно нужно и родственникам, дерущимся друг с другом, и конкурирующим бандам, и враждующим государствам. Юрий Орлов, опираясь на младшего брата Виталия, быстро завоёвывает свое место под солнцем и надеется в скором времени стать таким же крутым продавцом смерти, как его кумир Симеон Вайс. Но чем выше поднимается Юрий, тем ближе к нему подбирается агент Интерпола Джек Валентайн…



Качество: BDRip 1080p
Формат: MKV
Видео: MPEG-4 AVC, 15.1 Mбит/с, 1920x798, 23.976 кадр/с
Аудио 1: русский, AC3, 448 kbps, 6 ch [дублированный]
Аудио 2: русский, DTS, 1509 kbps, 6 ch [профессиональный двухголосый, Пётр Гланц и Инна Королёва]
Аудио 3: русский, DTS, 1509 kbps, 6 ch [профессиональный двухголосый, Tycoon]
Аудио 4: русский, DTS, 1509 kbps, 6 ch [авторский, Владимир Королёв]
Аудио 5: русский, AC3, 1448 kbps, 6 ch [любительский одноголосый, Solod]
Аудио 6: английский, DTS, 1509 kbps, 6 ch, 48 kHz [оригинал]
Субтитры 1: русские
Субтитры 2: английские
Имеются неименованные главы/чаптеры.
Общее
Уникальный идентификатор : 215186364298771179670120235309125237978 (0xA1E362E21C74828CB79750441E767CDA)
Полное имя : D:\Video\Оружейный барон.2005.BDRip.1080p by msltel.mkv
Формат : Matroska
Версия формата : Version 4 / Version 2
Размер файла : 18,8 Гбайт
Продолжительность : 2 ч. 1 м.
Общий поток : 22,0 Мбит/сек
Название фильма : Rip by msltel
Дата кодирования : UTC 2017-10-02 02:27:51
Программа кодирования : mkvmerge v8.2.0 ('World of Adventure') 64bit
Библиотека кодирования : libebml v1.3.1 + libmatroska v1.4.2

Видео
Идентификатор : 1
Формат : AVC
Формат/Информация : Advanced Video Codec
Профиль формата : High@L4.1
Параметр CABAC формата : Да
Параметр RefFrames формата : 4 кадра
Идентификатор кодека : V_MPEG4/ISO/AVC
Продолжительность : 2 ч. 1 м.
Битрейт : 15,1 Мбит/сек
Ширина : 1920 пикселей
Высота : 798 пикселей
Соотношение сторон : 2,40:1
Режим частоты кадров : Постоянный
Частота кадров : 23,976 (24000/1001) кадра/сек
Цветовое пространство : YUV
Субдискретизация насыщенности : 4:2:0
Битовая глубина : 8 бит
Тип развёртки : Прогрессивная
Бит/(Пиксели*Кадры) : 0.411
Размер потока : 12,8 Гбайт (68%)
Библиотека кодирования : x264 core 146 r2538 121396c
Настройки программы : cabac=1 / ref=4 / deblock=1:-3:-2 / analyse=0x3:0x113 / me=umh / subme=11 / psy=1 / psy_rd=1.00:0.15 / mixed_ref=1 / me_range=32 / chroma_me=1 / trellis=2 / 8x8dct=1 / cqm=0 / deadzone=21,11 / fast_pskip=0 / chroma_qp_offset=-3 / threads=6 / lookahead_threads=1 / sliced_threads=0 / nr=0 / decimate=1 / interlaced=0 / bluray_compat=0 / constrained_intra=0 / bframes=11 / b_pyramid=2 / b_adapt=2 / b_bias=0 / direct=1 / weightb=1 / open_gop=0 / weightp=2 / keyint=230 / keyint_min=23 / scenecut=40 / intra_refresh=0 / rc_lookahead=40 / rc=crf / mbtree=0 / crf=19.9 / qcomp=0.60 / qpmin=0 / qpmax=69 / qpstep=4 / vbv_maxrate=62500 / vbv_bufsize=78125 / crf_max=0.0 / nal_hrd=none / filler=0 / ip_ratio=1.40 / pb_ratio=1.30 / aq=1:1.00
Язык : English
Default : Да
Forced : Нет

Аудио #1
Идентификатор : 2
Формат : AC-3
Формат/Информация : Audio Coding 3
Параметр Endianness формата : Big
Идентификатор кодека : A_AC3
Продолжительность : 2 ч. 1 м.
Вид битрейта : Постоянный
Битрейт : 448 Кбит/сек
Каналы : 6 каналов
Расположение каналов : Front: L C R, Side: L R, LFE
Частота : 48,0 КГц
Частота кадров : 31,250 кадров/сек (1536 SPF)
Битовая глубина : 16 бит
Метод сжатия : С потерями
Размер потока : 391 Мбайт (2%)
Заголовок : DUB
Язык : Russian
ServiceKind/String : Complete Main
Default : Да
Forced : Нет

Аудио #2
Идентификатор : 3
Формат : DTS
Формат/Информация : Digital Theater Systems
Режим : 16
Параметр Endianness формата : Big
Идентификатор кодека : A_DTS
Продолжительность : 2 ч. 1 м.
Вид битрейта : Постоянный
Битрейт : 1509 Кбит/сек
Каналы : 6 каналов
Расположение каналов : Front: L C R, Side: L R, LFE
Частота : 48,0 КГц
Частота кадров : 93,750 кадра/сек (512 SPF)
Битовая глубина : 16 бит
Метод сжатия : С потерями
Размер потока : 1,29 Гбайт (7%)
Заголовок : DVO (Пётр Гланц и Инна Королёва)
Язык : Russian
Default : Нет
Forced : Нет

Аудио #3
Идентификатор : 4
Формат : DTS
Формат/Информация : Digital Theater Systems
Режим : 16
Параметр Endianness формата : Big
Идентификатор кодека : A_DTS
Продолжительность : 2 ч. 1 м.
Вид битрейта : Постоянный
Битрейт : 1509 Кбит/сек
Каналы : 6 каналов
Расположение каналов : Front: L C R, Side: L R, LFE
Частота : 48,0 КГц
Частота кадров : 93,750 кадра/сек (512 SPF)
Битовая глубина : 24 бит
Метод сжатия : С потерями
Размер потока : 1,29 Гбайт (7%)
Заголовок : DVO.Tycoon
Язык : Russian
Default : Нет
Forced : Нет

Аудио #4
Идентификатор : 5
Формат : DTS
Формат/Информация : Digital Theater Systems
Режим : 16
Параметр Endianness формата : Big
Идентификатор кодека : A_DTS
Продолжительность : 2 ч. 1 м.
Вид битрейта : Постоянный
Битрейт : 1509 Кбит/сек
Каналы : 6 каналов
Расположение каналов : Front: L C R, Side: L R, LFE
Частота : 48,0 КГц
Частота кадров : 93,750 кадра/сек (512 SPF)
Битовая глубина : 24 бит
Метод сжатия : С потерями
Размер потока : 1,29 Гбайт (7%)
Заголовок : Владимир Королёв
Язык : Russian
Default : Нет
Forced : Нет

Аудио #5
Идентификатор : 6
Формат : AC-3
Формат/Информация : Audio Coding 3
Параметр Endianness формата : Big
Идентификатор кодека : A_AC3
Продолжительность : 2 ч. 1 м.
Вид битрейта : Постоянный
Битрейт : 448 Кбит/сек
Каналы : 6 каналов
Расположение каналов : Front: L C R, Side: L R, LFE
Частота : 48,0 КГц
Частота кадров : 31,250 кадров/сек (1536 SPF)
Битовая глубина : 16 бит
Метод сжатия : С потерями
Размер потока : 391 Мбайт (2%)
Заголовок : VO.Solod
Язык : Russian
ServiceKind/String : Complete Main
Default : Нет
Forced : Нет

Аудио #6
Идентификатор : 7
Формат : DTS
Формат/Информация : Digital Theater Systems
Режим : 16
Параметр Endianness формата : Big
Идентификатор кодека : A_DTS
Продолжительность : 2 ч. 1 м.
Вид битрейта : Постоянный
Битрейт : 1509 Кбит/сек
Каналы : 6 каналов
Расположение каналов : Front: L C R, Side: L R, LFE
Частота : 48,0 КГц
Частота кадров : 93,750 кадра/сек (512 SPF)
Битовая глубина : 24 бит
Метод сжатия : С потерями
Размер потока : 1,29 Гбайт (7%)
Заголовок : original
Язык : English
Default : Нет
Forced : Нет

Текст #1
Идентификатор : 8
Формат : UTF-8
Идентификатор кодека : S_TEXT/UTF8
Идентификатор кодека/Информация : UTF-8 Plain Text
Продолжительность : 1 ч. 55 м.
Битрейт : 101 бит/сек
ElementCount : 1213
Размер потока : 85,3 Кбайт (0%)
Заголовок : русские.R5
Язык : Russian
Default : Нет
Forced : Нет

Текст #2
Идентификатор : 9
Формат : UTF-8
Идентификатор кодека : S_TEXT/UTF8
Идентификатор кодека/Информация : UTF-8 Plain Text
Продолжительность : 1 ч. 56 м.
Битрейт : 65 бит/сек
ElementCount : 1628
Размер потока : 55,9 Кбайт (0%)
Заголовок : английские
Язык : English
Default : Нет
Forced : Нет

Меню
00:00:00.000 : en:00:00:00.000
00:04:37.610 : en:00:04:37.610
00:08:13.493 : en:00:08:13.493
00:12:29.457 : en:00:12:29.457
00:16:40.332 : en:00:16:40.332
00:19:35.174 : en:00:19:35.174
00:23:27.072 : en:00:23:27.072
00:27:19.888 : en:00:27:19.888
00:31:07.115 : en:00:31:07.115
00:38:20.089 : en:00:38:20.089
00:42:18.786 : en:00:42:18.786
00:45:52.166 : en:00:45:52.166
00:50:43.999 : en:00:50:43.999
00:53:56.149 : en:00:53:56.149
00:58:17.911 : en:00:58:17.911
01:02:48.931 : en:01:02:48.931
01:08:33.442 : en:01:08:33.442
01:12:25.841 : en:01:12:25.841
01:17:21.094 : en:01:17:21.094
01:21:31.595 : en:01:21:31.595
01:25:03.932 : en:01:25:03.932
01:30:07.276 : en:01:30:07.276
01:37:01.273 : en:01:37:01.273
01:40:10.212 : en:01:40:10.212
01:47:04.209 : en:01:47:04.209
01:50:58.109 : en:01:50:58.109
01:54:23.481 : en:01:54:23.481
01:56:09.504 : en:01:56:09.504
pb.wtf



Скачать Оружейный барон через торрент http://s018.radikal.ru/i516/1710/cc/b69fca34236a.jpg Скачать фильм Оружейный барон через торрент бесплантно в хорошем качестве О фильме: Родители братьев Орловых, старшего Юрия и младшего Виталия, покинули Украину и обосновались в Америке на Брайтон-Бич, где открыли ... 9.9 10 7
Info! Золотая раздача, скачанное не засчитывается.
Торрент: Зарегистрирован [2017-10-02 10:10] · скачан: 75 раз
Статус: √ проверено
Размер: 18.76 GB
Как cкачать? Как скачать Оружейный барон через торрент | qTorrent

% Раздел Тема Автор DL S | L
Фильмы [HD 720p, 1080p] (Хороший звук DUB, MVO) [ 6.86 GB ] Оружейный барон / Lord of War [2005 BDRip 720p by msltel] DUB 2 x DVO AVO VO msltel Скачать
1 | 0

28-11-2019 20:33  

Отключить всю рекламу на сайте

    Дорогой пользователь! Огромная просьба, поблагодарите релизера, оцените раздачу и оставьте свои комментарий, если Вы скачали Оружейный барон через торрент бесплатно! Внесите свою лепту в развитие PiratBit!
    Комментировать посты могут только пользователи прошедшие не сложную регистрацию
    Показать сообщения:    

    Оружейный барон через торрент
    Скачать бесплатно Оружейный барон
    Оружейный барон скачать торрент
    Оружейный барон смотреть онлайн
    Cкачать фильм Оружейный барон бесплатно
    Оружейный барон скачать торрент в хорошем качестве
    Оружейный барон смотреть онлайн бесплатно в хорошем качестве


    Вы не можете начинать темы
    Вы не можете отвечать на сообщения
    Вы не можете редактировать свои сообщения
    Вы не можете удалять свои сообщения
    Вы не можете голосовать в опросах
    Вы не можете прикреплять файлы к сообщениям
    Вы можете скачивать файлы