1 сезон

1 сезон

iTunes

1

iTunes

Кинопоиск HD

iTunes

13

1 сезон

RePack

30

Deluxe

ВАЖНО

ИГРА 18+

pack

RePack

MK11
pack

Легкие деньги

RePack

jed

RePack

fifa19

RePack

RDR2

RePack

NEED FOR SPEED™ PAYBACK

4 сезон

9 сезон

Бесстыжие 9 сезон

Все сериалы

все сериалы на PB.wtf

RePack

FAR CRY 5
  
Magnet ссылка

По ту сторону (Федор Филиппов) [1958, мелодрама, военный, SATRip от AVP Studio] pb.wtf

По ту сторону через торрент pb.wtf

Размер: 1.09 GB | Добавлен: 3 года 7 мес. назад | Торрент скачан:24 раза
Скачать  

02-10-2017 10:18 По ту сторону Скачать торрент  

По ту сторону
Страна: СССР
Производство: Мосфильм

Жанр: мелодрама, военный
Год выпуска: 1958
Продолжительность: 01:34:40

Перевод: Не требуется
Cубтитры: нет
Оригинальная аудиодорожка: русский

Режиссер: Федор Филиппов

В ролях:
Всеволод Сафонов, Юрий Пузырёв, Людмила Касаткина, Елена Муратова, Григорий Белов, Сергей Калинин, Владимир Емельянов, Сергей Филиппов, Евгений Шутов, Любовь Студнева...
Об актёрах подробней

Описание:
Фильм снят по одноименному роману Виктора Кина о событиях на Дальнем Востоке, охваченном огнем гражданской войны. В создании сценария принимала участие знаменитая исследовательница Цецилия Кин.

Источник: DVB
Качество видео: SATRip
Формат видео: AVI

Видео: 704x528 (4:3), 25 fps, XviD ~ 1446 kbps avg, 0.156 bit/pixel
Аудио: 48 kHz, Dolby Digital AC3 2.0, 192 kbps

Раздача от:
Общее
Полное имя : Po.tu.storonu.1958.SATRip_[New-team]_by_AVP_Studio.avi
Формат : AVI
Формат/Информация : Audio Video Interleave
Размер файла : 1,09 Гбайт
Продолжительность : 1 ч. 34 м.
Общий поток : 1648 Кбит/сек
Программа кодирования : VirtualDubMod 1.5.10.3 | www.virtualdub-fr.org || (build 2550/release)
Библиотека кодирования : VirtualDubMod build 2550/release

Видео
Идентификатор : 0
Формат : MPEG-4 Visual
Профиль формата : Advanced Simple@L5
Параметр BVOP формата : 1
Параметр QPel формата : Нет
Параметр GMC формата : Без точки перехода
Параметр матрицы формата : Выборочная
Идентификатор кодека : XVID
Идентификатор кодека/Подсказка : XviD
Продолжительность : 1 ч. 34 м.
Битрейт : 1446 Кбит/сек
Ширина : 704 пикселя
Высота : 528 пикселей
Соотношение сторон : 4:3
Частота кадров : 25,000 кадров/сек
Цветовое пространство : YUV
Субдискретизация насыщенности : 4:2:0
Битовая глубина : 8 бит
Тип развёртки : Прогрессивная
Метод сжатия : С потерями
Бит/(Пиксели*Кадры) : 0.156
Размер потока : 979 Мбайт (88%)
Библиотека кодирования : XviD 73

Аудио
Идентификатор : 1
Формат : AC-3
Формат/Информация : Audio Coding 3
Параметр Endianness формата : Big
Идентификатор кодека : 2000
Продолжительность : 1 ч. 34 м.
Вид битрейта : Постоянный
Битрейт : 192 Кбит/сек
Каналы : 2 канала
Расположение каналов : Front: L R
Частота : 48,0 КГц
Частота кадров : 31,250 кадров/сек (1536 SPF)
Битовая глубина : 16 бит
Метод сжатия : С потерями
Размер потока : 130 Мбайт (12%)
Выравнивание : Разделение по промежуткам
Продолжительность промежутка : 40 мс. (1,00 видеокадр)
Время предзагрузки промежутка : 500 мс
pb.wtf



Скачать По ту сторону через торрент http://s009.radikal.ru/i310/1710/35/888f3bbb5378.png Скачать фильм По ту сторону через торрент бесплантно в хорошем качестве Описание:Фильм снят по одноименному роману Виктора Кина о событиях на Дальнем Востоке, охваченном огнем гражданской войны. В создании ... 10 10 1
Info! Золотая раздача, скачанное не засчитывается.
Торрент: Зарегистрирован [2017-10-02 10:18] · скачан: 24 раз
Статус: √ проверено
Размер: 1.09 GB
Как cкачать? Как скачать По ту сторону через торрент | UTorrent

% Раздел Тема Автор DL S | L
Наши сериалы [ 2.53 GB ] По ту сторону волков [2002 DVDRip] serg68rus Скачать
1 | 0
Наши сериалы [ 5.86 GB ] Ключи от бездны / Операция ''Голем'' / По ту сторону волков 2 [серии1-12 из 12] [2004 история DVDRip] khagkfgkahgaer Скачать
1 | 0
Зарубежные сериалы [ 26.08 GB ] Двойник / По ту сторону / Counterpart / Сезон: 1 / Серии: 1-10 из 10 [2017 BDRip-HEVC 1080p] Кубик в Кубе TVShow LostFilm NewStudio Кириллица RealOldGamer Скачать
2 | 0
Фантастика [ 464 MB ] Владислав Конюшевский - Попытка возврата 3. По эту сторону фронта [Пожилой Ксеноморф 2019 128 kbps MP3] bober100 Скачать
2 | 0
Наши сериалы [ 10.3 GB ] По ту сторону счастья / Серии: 1-2 из 2 [2020 Мело HDTV 1080i] bober100 Скачать
1 | 0
Наши сериалы [ 4.97 GB ] По ту сторону счастья / Серии: 1-2 из 2 [2020 Мело HDTVRip 720p] bober100 Скачать
1 | 0
Наши сериалы [ 2.56 GB ] По ту сторону счастья / Серии: 1-2 из 2 [2020 Мело SATRip] bober100 Скачать
1 | 0

28-11-2019 20:33  

Отключить всю рекламу на сайте

    Дорогой пользователь! Огромная просьба, поблагодарите релизера, оцените раздачу и оставьте свои комментарий, если Вы скачали По ту сторону через торрент бесплатно! Внесите свою лепту в развитие PiratBit!
    Комментировать посты могут только пользователи прошедшие не сложную регистрацию
    Показать сообщения:    

    По ту сторону через торрент
    Скачать бесплатно По ту сторону
    По ту сторону скачать торрент
    По ту сторону смотреть онлайн
    Cкачать фильм По ту сторону бесплатно
    По ту сторону скачать торрент в хорошем качестве
    По ту сторону смотреть онлайн бесплатно в хорошем качестве


    Вы не можете начинать темы
    Вы не можете отвечать на сообщения
    Вы не можете редактировать свои сообщения
    Вы не можете удалять свои сообщения
    Вы не можете голосовать в опросах
    Вы не можете прикреплять файлы к сообщениям
    Вы можете скачивать файлы