Ссылка на приватное зеркало нашего сайта всего за 1$. Внимание количество ограничено!!!

2 сезон

iTunes

1 сезон

1

iTunes

iTunes

iTunes

1 сезон

RePack

30

ИГРА 18+

pack

ВАЖНО

!!Акция!!

Alien_RageХит недели

RePack

MK11
pack

Забери бонус

RePack

jed

!!Акция!!

Alien_Rage

RePack

fifa19

RePack

Assassins Creed: Odyssey

RePack

NEED FOR SPEED™ PAYBACK

4 сезон

9 сезон

Бесстыжие 9 сезон

Все сериалы

все сериалы на PB.wtf

RePack

FAR CRY 5
  

Это не я, это - он! / C'est pas moi, c'est lui (Пьер Ришар) [1980, комедия, BDRip 720p by msltel] MVO pb.wtf

Это не я, это - он! через торрент pb.wtf

Размер: 4.07 GB | Добавлен: 3 года назад | Торрент скачан:68 раз
Скачать  

02-10-2017 11:03 Это не я, это - он! Скачать торрент  

Название: Это не я, это - он!
Оригинальное название: C'est pas moi, c'est lui
Год выпуска: 1980
Страна: Франция
Жанр: комедия
Продолжительность: 01:34:39
Перевод: профессиональный многоголосый

Режиссер: Пьер Ришар
В ролях: Пьер Ришар, Альдо Маччоне, Валери Мересс, Даниэль Минадзоли, Анетт Пувр, Жерар Эрнандес, Франка Валери, Анри Гарсен, Рауф Бен Амор, Франк-Оливье Бонне, Филипп Бриго, Марсель Гассук, Клер Маньен, Луи Наварре, Мари-Кристина Дешайе, Жаклин Ноэль, Бубуль, Нуреддин Касбауи, Абдельлатиф Хамруни, Жак Монне, Мишель Мюллер

О фильме: Тихий литературный «негр» в один прекрасный день, вследствие ошибки, получает заманчивое предложение поработать в Тунисе. Отправляясь туда вместе с новым знакомым, итальянским актёром, он и не подозревает, какие приключения ждут его в этом путешествии...



Качество: BDRip 720p
Формат: MKV
Видео: MPEG-4 AVC, 5699 Кбит/с, 1196x720
Аудио 1: русский, AC3, 256 kbps, 2 ch, 48 kHz [профессиональный многоголосый, ОРТ]
Аудио 2: французский, AC3, 192 kbps, 2 ch, 48 kHz [оригинал]
Общее
Уникальный идентификатор : 240406103477180733714596134103776183307 (0xB4DC88068DFCEA7086F8481B9F1B440B)
Полное имя : D:\Video\Это не я, это - он.1980.BDRip.720p by msltel.mkv
Формат : Matroska
Версия формата : Version 4 / Version 2
Размер файла : 4,07 Гбайт
Продолжительность : 1 ч. 34 м.
Общий поток : 6148 Кбит/сек
Название фильма : Rip by msltel
Дата кодирования : UTC 2017-10-02 03:50:13
Программа кодирования : mkvmerge v8.2.0 ('World of Adventure') 64bit
Библиотека кодирования : libebml v1.3.1 + libmatroska v1.4.2

Видео
Идентификатор : 1
Формат : AVC
Формат/Информация : Advanced Video Codec
Профиль формата : High@L4.1
Параметр CABAC формата : Да
Параметр RefFrames формата : 9 кадров
Идентификатор кодека : V_MPEG4/ISO/AVC
Продолжительность : 1 ч. 34 м.
Битрейт : 5699 Кбит/сек
Ширина : 1196 пикселей
Высота : 720 пикселей
Соотношение сторон : 5:3
Режим частоты кадров : Постоянный
Частота кадров : 24,000 кадра/сек
Цветовое пространство : YUV
Субдискретизация насыщенности : 4:2:0
Битовая глубина : 8 бит
Тип развёртки : Прогрессивная
Бит/(Пиксели*Кадры) : 0.276
Размер потока : 3,77 Гбайт (93%)
Библиотека кодирования : x264 core 146 r2538 121396c
Настройки программы : cabac=1 / ref=9 / deblock=1:-3:-2 / analyse=0x3:0x113 / me=umh / subme=11 / psy=1 / psy_rd=1.00:0.15 / mixed_ref=1 / me_range=32 / chroma_me=1 / trellis=2 / 8x8dct=1 / cqm=0 / deadzone=21,11 / fast_pskip=0 / chroma_qp_offset=-3 / threads=6 / lookahead_threads=1 / sliced_threads=0 / nr=0 / decimate=1 / interlaced=0 / bluray_compat=0 / constrained_intra=0 / bframes=7 / b_pyramid=2 / b_adapt=2 / b_bias=0 / direct=1 / weightb=1 / open_gop=0 / weightp=2 / keyint=230 / keyint_min=23 / scenecut=40 / intra_refresh=0 / rc_lookahead=40 / rc=crf / mbtree=0 / crf=19.7 / qcomp=0.60 / qpmin=0 / qpmax=69 / qpstep=4 / vbv_maxrate=62500 / vbv_bufsize=78125 / crf_max=0.0 / nal_hrd=none / filler=0 / ip_ratio=1.40 / pb_ratio=1.30 / aq=1:1.00
Язык : French
Default : Да
Forced : Нет

Аудио #1
Идентификатор : 2
Формат : AC-3
Формат/Информация : Audio Coding 3
Параметр Endianness формата : Big
Идентификатор кодека : A_AC3
Продолжительность : 1 ч. 34 м.
Вид битрейта : Постоянный
Битрейт : 256 Кбит/сек
Каналы : 2 канала
Расположение каналов : Front: L R
Частота : 48,0 КГц
Частота кадров : 31,250 кадров/сек (1536 SPF)
Битовая глубина : 16 бит
Метод сжатия : С потерями
Размер потока : 173 Мбайт (4%)
Заголовок : MVO.OPT
Язык : Russian
ServiceKind/String : Complete Main
Default : Да
Forced : Нет

Аудио #2
Идентификатор : 3
Формат : AC-3
Формат/Информация : Audio Coding 3
Параметр Endianness формата : Big
Идентификатор кодека : A_AC3
Продолжительность : 1 ч. 34 м.
Вид битрейта : Постоянный
Битрейт : 192 Кбит/сек
Каналы : 2 канала
Расположение каналов : Front: L R
Частота : 48,0 КГц
Частота кадров : 31,250 кадров/сек (1536 SPF)
Битовая глубина : 16 бит
Метод сжатия : С потерями
Размер потока : 130 Мбайт (3%)
Заголовок : original
Язык : French
ServiceKind/String : Complete Main
Default : Нет
Forced : Нет
pb.wtf



Скачать Это не я, это - он! через торрент http://s16.radikal.ru/i191/1710/bb/3beb6e913bd0.jpg Скачать фильм Это не я, это - он! через торрент бесплантно в хорошем качестве О фильме: Тихий литературный «негр» в один прекрасный день, вследствие ошибки, получает заманчивое предложение поработать в Тунисе. ... 10 10 6
Info! Золотая раздача, скачанное не засчитывается.
Торрент: Зарегистрирован [2017-10-02 11:03] · скачан: 68 раз
Статус: √ проверено
Размер: 4.07 GB
Как cкачать? Как скачать Это не я, это - он! через торрент | qTorrent



Последний раз редактировалось: msltel (2017-10-03 05:34), всего редактировалось 1 раз

28-11-2019 20:33  

Отключить всю рекламу на сайте

02-10-2017 11:48 Это не я, это - он! Скачать торрент  

Скриншоты то где? Забыл однако....pb.wtf
K-Lexx- писал(а):

Исправлено.



    Дорогой пользователь! Огромная просьба, поблагодарите релизера, оцените раздачу и оставьте свои комментарий, если Вы скачали Это не я, это - он! через торрент бесплатно! Внесите свою лепту в развитие PiratBit!
    Комментировать посты могут только пользователи прошедшие не сложную регистрацию
    Показать сообщения:    

    Это не я, это - он! через торрент
    Скачать бесплатно Это не я, это - он!
    Это не я, это - он! скачать торрент
    Это не я, это - он! смотреть онлайн
    Cкачать фильм Это не я, это - он! бесплатно
    Это не я, это - он! скачать торрент в хорошем качестве
    Это не я, это - он! смотреть онлайн бесплатно в хорошем качестве


    Вы не можете начинать темы
    Вы не можете отвечать на сообщения
    Вы не можете редактировать свои сообщения
    Вы не можете удалять свои сообщения
    Вы не можете голосовать в опросах
    Вы не можете прикреплять файлы к сообщениям
    Вы можете скачивать файлы