Ссылка на приватное зеркало нашего сайта всего за 1$. Внимание количество ограничено!!!

2 сезон

iTunes

1 сезон

1

2 сезон

2 сезон

iTunes

1 сезон

RePack

30

Ultimate

ВАЖНО

ИГРА 18+

pack

RePack

MK11
pack

Забери бонус

RePack

jed

!!Акция!!

Alien_Rage

RePack

fifa19

RePack

Assassins Creed: Odyssey

RePack

NEED FOR SPEED™ PAYBACK

4 сезон

9 сезон

Бесстыжие 9 сезон

Все сериалы

все сериалы на PB.wtf

RePack

FAR CRY 5
  

Последний человек на Земле / The Last Man on Earth / Сезон: 4 / Серии 1-18 из 18 (Джон Соломон / John Solomon, Джейсон Уолинер / Jason Woliner) [2017, США, комедия, WEBRip 720p] MVO [BaibaKo] pb.wtf

Последний человек на Земле через торрент pb.wtf

Размер: 12.3 GB | Добавлен: 2 года 6 мес. назад | Торрент скачан:24 раза
Скачать  

02-10-2017 23:37 Последний человек на Земле Скачать торрент  

Последний человек на Земле / The Last Man on Earth
«Продолжай в том же духе»


  • Год выпуска: 2017
  • Страна: США
  • Жанр: комедия
  • Продолжительность: ~ 00:21:00 (Серия)
  • Перевод: Профессиональный многоголосый [BaibaKo]
  • Режиссер: Джон Соломон / John Solomon, Джейсон Уолинер / Jason Woliner, Пэймэн Бенц / Payman Benz
  • В ролях:

    Уилл Форте (Phil Miller), Кристен Шаал (Carol Pilbasian), Дженьюэри Джонс (Melissa Shart), Мэл Родригез (Todd), Клеопатра Коулмэн (Erica), Мэри Стинберген (Gail Klosterman), Джейсон Судейкис (Mike Miller), Борис Коджо (Phil Miller #2), Марк Бун Джуниор (Pat Brown), Аланна Висенте (Computer), Александра Даддарио (Victoria), Джейкоб Тремблэ (Young Tandy)


  • Фил Миллер когда-то был просто обычным парнем, который любил свою семью и ненавидел свою работу в банке - теперь он последняя надежда человечества. Найдет ли он когда-нибудь другого живого человека на планете?
  • Рейтинг:



  • Качество: WEBRip 720p
  • Формат: :MKV
  • Видео кодек: AVC
  • Аудио кодек: AC3
  • Видео: 3360 Кбит/сек, 1280*720 (16:9), в 23,976 (23976/1000) кадра/сек, AVC
  • Аудио №1: русский 384 Кбит/сек, 48,0 КГц, 16 бит, 2 канала, AC-3 |[BaibaKo]|
  • Аудио №2: английский 384 Кбит/сек, 48,0 КГц, 16 бит, 2 канала, AC-3
  • Релиз от: GEKADOL

    Внимание! Раздача ведётся путём добавления новых серий; при каждом добавлении создаётся новый торрент. Чтобы начать докачку новой серии, пользователям необходимо сделать следующее:
    (1) остановить скачивание,
    (2) удалить старый торрент у себя из клиента (старые серии удалять не надо),
    (3) скачать новый торрент и запустить его у себя в клиенте вместо старого, при этом указать клиенту путь в старую папку куда и должно происходить скачивание новых серий.
    Ваш клиент при этом должен произвести хеширование (проверку) старой папки (если не производит сам - помогите ему сделать это), и будет докачивать только те серии которых у вас ещё нет. Старые серии при этом не удаляются, а продолжают раздаваться!
    Eсли вы уже удалили старые серии, то предотвратить повторную закачку старых серий можно, отжав галочку в соответствующих местах при запуске нового торрента. По возможности, желательно не удалять старые серии как можно дольше чтобы релизёр не столько продолжал раздавать старые серии, а смог сконцентрироваться на новых.

    Общее
    Уникальный идентификатор : 216353012219117329687479756807187973268 (0xA2C41311103E2777A9AC51A994FFC494)
    Полное имя : F:\Последний человек на Земле (The Last Man on Earth 4)\The.Last.Man.On.Earth.s04e01.HD720p.WEBRip.Rus.Eng.BaibaKo.tv.mkv
    Формат : Matroska
    Версия формата : Version 4 / Version 2
    Размер файла : 617 Мбайт
    Продолжительность : 21 м. 7 с.
    Общий поток : 4083 Кбит/сек
    Дата кодирования : UTC 2017-10-02 23:20:01
    Программа кодирования : mkvmerge v14.0.0 ('Flow') 64bit
    Библиотека кодирования : libebml v1.3.4 + libmatroska v1.4.5

    Видео
    Идентификатор : 1
    Формат : AVC
    Формат/Информация : Advanced Video Codec
    Профиль формата : High@L3.1
    Параметр CABAC формата : Да
    Параметр RefFrames формата : 2 кадра
    Идентификатор кодека : V_MPEG4/ISO/AVC
    Продолжительность : 21 м. 7 с.
    Битрейт : 3360 Кбит/сек
    Ширина : 1280 пикселей
    Высота : 720 пикселей
    Соотношение сторон : 16:9
    Режим частоты кадров : Постоянный
    Частота кадров : 23,976 (23976/1000) кадра/сек
    Частота кадров в оригинале : 24,000 кадра/сек
    Цветовое пространство : YUV
    Субдискретизация насыщенности : 4:2:0
    Битовая глубина : 8 бит
    Тип развёртки : Прогрессивная
    Бит/(Пиксели*Кадры) : 0.152
    Размер потока : 501 Мбайт (81%)
    Библиотека кодирования : x264 core 148 r2579M 73ae2d1
    Настройки программы : cabac=1 / ref=2 / deblock=1:0:0 / analyse=0x3:0x113 / me=hex / subme=2 / psy=1 / psy_rd=1.00:0.00 / mixed_ref=0 / me_range=16 / chroma_me=1 / trellis=0 / 8x8dct=1 / cqm=0 / deadzone=21,11 / fast_pskip=1 / chroma_qp_offset=0 / threads=4 / lookahead_threads=1 / sliced_threads=0 / nr=250 / decimate=1 / interlaced=0 / bluray_compat=0 / stitchable=1 / constrained_intra=0 / bframes=0 / weightp=1 / keyint=250 / keyint_min=24 / scenecut=40 / intra_refresh=0 / rc_lookahead=10 / rc=2pass / mbtree=1 / bitrate=3360 / ratetol=1.0 / qcomp=0.60 / qpmin=5 / qpmax=69 / qpstep=4 / cplxblur=20.0 / qblur=0.5 / ip_ratio=1.40 / aq=1:1.00
    Default : Нет
    Forced : Нет

    Аудио #1
    Идентификатор : 2
    Формат : AC-3
    Формат/Информация : Audio Coding 3
    Параметр Endianness формата : Big
    Идентификатор кодека : A_AC3
    Продолжительность : 21 м. 7 с.
    Вид битрейта : Постоянный
    Битрейт : 384 Кбит/сек
    Каналы : 2 канала
    Расположение каналов : Front: L R
    Частота : 48,0 КГц
    Частота кадров : 31,250 кадров/сек (1536 SPF)
    Битовая глубина : 16 бит
    Метод сжатия : С потерями
    Задержка видео : 20 мс.
    Размер потока : 58,0 Мбайт (9%)
    Язык : Russian
    ServiceKind/String : Complete Main
    Default : Да
    Forced : Нет

    Аудио #2
    Идентификатор : 3
    Формат : AC-3
    Формат/Информация : Audio Coding 3
    Параметр Endianness формата : Big
    Идентификатор кодека : A_AC3
    Продолжительность : 21 м. 7 с.
    Вид битрейта : Постоянный
    Битрейт : 384 Кбит/сек
    Каналы : 2 канала
    Расположение каналов : Front: L R
    Частота : 48,0 КГц
    Частота кадров : 31,250 кадров/сек (1536 SPF)
    Битовая глубина : 16 бит
    Метод сжатия : С потерями
    Задержка видео : 23 мс.
    Размер потока : 58,0 Мбайт (9%)
    Язык : English
    ServiceKind/String : Complete Main
    Default : Нет
    Forced : Нет



    Скриншоты:
    скриншот   скриншот   скриншот   скриншот   скриншот   скриншот   скриншот  
    скриншот  

    Раздача ведётся путём добавления новых серий. Добавлена 18 серия (08.05.2018).Просьба перекачать торрент файл.

    pb.wtf



  • Скачать Последний человек на Земле через торрент http://i85.fastpic.ru/big/2016/0928/27/3e97c0c5a71851330272f2c385595d27.jpg Скачать фильм Последний человек на Земле через торрент бесплантно в хорошем качестве qw.png Фил Миллер когда-то был просто обычным парнем, который любил свою семью и ненавидел свою работу в банке - теперь он последняя ... 7.6 10 10
    Info! Золотая раздача, скачанное не засчитывается.
    Торрент: Зарегистрирован [2018-05-07 23:35] · скачан: 24 раз
    Статус: √ проверено
    Размер: 12.3 GB
    Как cкачать? Как скачать Последний человек на Земле через торрент | qTorrent

    % Раздел Тема Автор DL S | L
    Зарубежные сериалы [ 5.33 GB ] Последний человек на Земле / The Last Man on Earth / Сезон: 4 / Серии: 1-18 из 18 [2017 WEBRip] MVO [BaibaKo] bober100 Скачать
    1 | 0
    Зарубежные сериалы [ 16.7 GB ] Последний человек на Земле / The Last Man on Earth / Сезон: 4 / Серии: 1-18 из 18 [2017 WEBRip 1080p] MVO [BaibaKo] bober100 Скачать
    1 | 0


    Последний раз редактировалось: GEKADOL (2018-05-07 23:35), всего редактировалось 22 раз(а)

    28-11-2019 20:33  

    Отключить всю рекламу на сайте

    11-10-2017 21:16 Последний человек на Земле Скачать торрент  

    свежачок ;)))pb.wtf



    17-10-2017 08:52 Последний человек на Земле Скачать торрент  

    1е скрин, её чтоль рой пчёл покусал.Губы ..... pb.wtf



    14-11-2017 03:14 Последний человек на Земле Скачать торрент  

    Заменены 1,3 серии на PROPER!!!! pb.wtf



    16-02-2018 02:57 Последний человек на Земле Скачать торрент  

    Месяц уже.че так долго тоpb.wtf



    19-03-2018 10:53 Последний человек на Земле Скачать торрент  

    Встаньте на раздачу pb.wtf



    19-03-2018 23:33 Последний человек на Земле Скачать торрент  

    lalkamarinka писал(а):

    Встаньте на раздачу

    На раздаче) pb.wtf



    19-03-2018 23:48 Последний человек на Земле Скачать торрент  

    блин, судя по скринам их там целые орды, выживших этих. в этом сезоне Фил наверное в тибет соберется, чтоб остальные "последние надежды человечества" дышать не мешали)) а то куда не плюнь в выжевшего попадешь)pb.wtf



    20-03-2018 01:04 Последний человек на Земле Скачать торрент  

    tamburetko писал(а):

    блин, судя по скринам их там целые орды, выживших этих. в этом сезоне Фил наверное в тибет соберется, чтоб остальные "последние надежды человечества" дышать не мешали)) а то куда не плюнь в выжевшего попадешь)

    pb.wtf



    20-03-2018 12:23 Последний человек на Земле Скачать торрент  

    Встаньте на раздачу еще 28% осталось докачать... pb.wtf



      Дорогой пользователь! Огромная просьба, поблагодарите релизера, оцените раздачу и оставьте свои комментарий, если Вы скачали Последний человек на Земле через торрент бесплатно! Внесите свою лепту в развитие PiratBit!
      Комментировать посты могут только пользователи прошедшие не сложную регистрацию
      Показать сообщения:    

      Последний человек на Земле через торрент
      Скачать бесплатно Последний человек на Земле
      Последний человек на Земле скачать торрент
      Последний человек на Земле смотреть онлайн
      Cкачать фильм Последний человек на Земле бесплатно
      Последний человек на Земле скачать торрент в хорошем качестве
      Последний человек на Земле смотреть онлайн бесплатно в хорошем качестве


      Вы не можете начинать темы
      Вы не можете отвечать на сообщения
      Вы не можете редактировать свои сообщения
      Вы не можете удалять свои сообщения
      Вы не можете голосовать в опросах
      Вы не можете прикреплять файлы к сообщениям
      Вы можете скачивать файлы