Ссылка на приватное зеркало нашего сайта всего за 1$. Внимание количество ограничено!!!

2 сезон

iTunes

1 сезон

1

2 сезон

2 сезон

iTunes

1 сезон

RePack

30

Ultimate

ВАЖНО

ИГРА 18+

pack

RePack

MK11
pack

Забери бонус

RePack

jed

!!Акция!!

Alien_Rage

RePack

fifa19

RePack

Assassins Creed: Odyssey

RePack

NEED FOR SPEED™ PAYBACK

4 сезон

9 сезон

Бесстыжие 9 сезон

Все сериалы

все сериалы на PB.wtf

RePack

FAR CRY 5
  

Изгоняющий дьявола / Экзорцист / The Exorcist / Сезон: 2 / Серии 1-10 из 10 (Майкл Нанкин, Джейсон Энслер, Руперт Уайатт) [2017, США, ужасы, триллер, WEBRip 720p] MVO [BaibaKo] pb.wtf

Изгоняющий дьявола через торрент pb.wtf

Размер: 10.91 GB | Добавлен: 2 года 11 мес. назад | Торрент скачан:29 раз
Скачать  

03-10-2017 11:47 Изгоняющий дьявола Скачать торрент  


Изгоняющий дьявола / Экзорцист / The Exorcist

«Каждая душа-это поле боя»


  • Год выпуска: 2017
  • Страна: США
  • Жанр: ужасы, триллер
  • Продолжительность: 00:45:21 (Серия)
  • Перевод: Профессиональный многоголосый [BaibaKo]
  • Режиссер: Майкл Нанкин / Michael Nankin, Джейсон Энслер / Jason Ensler, Руперт Уайатт / Rupert Wyatt
  • В ролях:
    Альфонсо Эррера, Бен Дэниелс, Джина Дэвис, Ханна Касулка, Брианна Хоуи, Алан Рак, Музам Маккар, Френсис Гуинан, Мелисса Расселл, Адам Биттерман


  • Одна из самых популярных тем в мировом кинематографе впервые воплощена в сериале. Снятый по мотивам знаменитого романа Уильяма Блэтти фильм “Изгоняющий дьявола” Уильяма Фридкина, признан чуть ли не самым страшным за всю историю. Одноименная телеверсия обещает быть не менее пугающей. Тем более, что вселять страх будут порциями, а не разом. И хотя источники и атмосфера те же, это не римейк, а новая история с неизвестными персонажами. В центре внимания два священнослужителя — каждый со своей точкой зрения, — занимающиеся случаем демонической одержимости.
  • Рейтинг:

    rating
  • Качество: WEBRip 720p
  • Формат: :MKV
  • Видео кодек: AVC
  • Аудио кодек: AC-3
  • Видео: 2633 Кбит/сек, 1280*720 (16:9), в 23,976 (24000/1001) кадра/сек, AVC
  • Аудио №1: русский 640 Кбит/сек, 48,0 КГц, 16 бит, 6 каналов, AC-3 |[BaibaKo]|
  • Аудио №2: английский 640 Кбит/сек, 48,0 КГц, 16 бит, 6 каналов, AC-3

    Внимание! Раздача ведётся путём добавления новых серий; при каждом добавлении создаётся новый торрент. Чтобы начать докачку новой серии, пользователям необходимо сделать следующее:
    (1) остановить скачивание,
    (2) удалить старый торрент у себя из клиента (старые серии удалять не надо),
    (3) скачать новый торрент и запустить его у себя в клиенте вместо старого, при этом указать клиенту путь в старую папку куда и должно происходить скачивание новых серий.
    Ваш клиент при этом должен произвести хеширование (проверку) старой папки (если не производит сам - помогите ему сделать это), и будет докачивать только те серии которых у вас ещё нет. Старые серии при этом не удаляются, а продолжают раздаваться!
    Eсли вы уже удалили старые серии, то предотвратить повторную закачку старых серий можно, отжав галочку в соответствующих местах при запуске нового торрента. По возможности, желательно не удалять старые серии как можно дольше чтобы релизёр не столько продолжал раздавать старые серии, а смог сконцентрироваться на новых.

    Общее
    Уникальный идентификатор : 235298963025131253294009627175932997047 (0xB104EE8F835C47A7A00E1BCB9DA52DB7)
    Полное имя : F:\Изгоняющий дьявола (The Exorcist 2)\The.Exorcist.s02e01.PROPER.HD720p.WEBRip.Rus.Eng.BaibaKo.tv.mkv
    Формат : Matroska
    Версия формата : Version 4 / Version 2
    Размер файла : 1,13 Гбайт
    Продолжительность : 41 м. 22 с.
    Режим общего битрейта : Переменный
    Общий поток : 3915 Кбит/сек
    Дата кодирования : UTC 2017-10-08 04:29:17
    Программа кодирования : mkvmerge v14.0.0 ('Flow') 64bit
    Библиотека кодирования : libebml v1.3.4 + libmatroska v1.4.5

    Видео
    Идентификатор : 1
    Формат : AVC
    Формат/Информация : Advanced Video Codec
    Профиль формата : High@L3.1
    Параметр CABAC формата : Да
    Параметр RefFrames формата : 5 кадров
    Идентификатор кодека : V_MPEG4/ISO/AVC
    Продолжительность : 41 м. 22 с.
    Вид битрейта : Переменный
    Битрейт : 2633 Кбит/сек
    Максимальный битрейт : 4500 Кбит/сек
    Ширина : 1280 пикселей
    Высота : 720 пикселей
    Соотношение сторон : 16:9
    Режим частоты кадров : Постоянный
    Частота кадров : 23,976 (24000/1001) кадра/сек
    Цветовое пространство : YUV
    Субдискретизация насыщенности : 4:2:0
    Битовая глубина : 8 бит
    Тип развёртки : Прогрессивная
    Бит/(Пиксели*Кадры) : 0.119
    Размер потока : 779 Мбайт (67%)
    Default : Нет
    Forced : Нет
    Цветовой диапазон : Limited
    Основные цвета : BT.709
    Характеристики трансфера : BT.709
    Коэффициенты матрицы : BT.709

    Аудио #1
    Идентификатор : 2
    Формат : AC-3
    Формат/Информация : Audio Coding 3
    Параметр Endianness формата : Big
    Идентификатор кодека : A_AC3
    Продолжительность : 41 м. 22 с.
    Вид битрейта : Постоянный
    Битрейт : 640 Кбит/сек
    Каналы : 6 каналов
    Расположение каналов : Front: L C R, Side: L R, LFE
    Частота : 48,0 КГц
    Частота кадров : 31,250 кадров/сек (1536 SPF)
    Битовая глубина : 16 бит
    Метод сжатия : С потерями
    Задержка видео : 29 мс.
    Размер потока : 189 Мбайт (16%)
    Язык : Russian
    ServiceKind/String : Complete Main
    Default : Да
    Forced : Нет

    Аудио #2
    Идентификатор : 3
    Формат : AC-3
    Формат/Информация : Audio Coding 3
    Параметр Endianness формата : Big
    Идентификатор кодека : A_AC3
    Продолжительность : 41 м. 22 с.
    Вид битрейта : Постоянный
    Битрейт : 640 Кбит/сек
    Каналы : 6 каналов
    Расположение каналов : Front: L C R, Side: L R, LFE
    Частота : 48,0 КГц
    Частота кадров : 31,250 кадров/сек (1536 SPF)
    Битовая глубина : 16 бит
    Метод сжатия : С потерями
    Размер потока : 189 Мбайт (16%)
    Язык : English
    ServiceKind/String : Complete Main
    Default : Нет
    Forced : Нет



    Скриншоты:
    скриншот   скриншот   скриншот   скриншот   скриншот   скриншот   скриншот  
    скриншот  

    Раздача ведётся путём добавления новых серий. Добавлена 10 серия (18.12.2017).Просьба перекачать торрент файл.

    pb.wtf



  • Скачать Изгоняющий дьявола через торрент http://pic1.kartinco.top/images/10/b83lh.jpg Скачать фильм Изгоняющий дьявола через торрент бесплантно в хорошем качестве qw.png Одна из самых популярных тем в мировом кинематографе впервые воплощена в сериале. Снятый по мотивам знаменитого романа Уильяма ... 8.4 10 14
    Info! Золотая раздача, скачанное не засчитывается.
    Торрент: Зарегистрирован [2017-12-17 23:11] · скачан: 29 раз
    Статус: √ проверено
    Размер: 10.91 GB
    Как cкачать? Как скачать Изгоняющий дьявола через торрент | qTorrent

    % Раздел Тема Автор DL S | L
    Зарубежные сериалы [ 5.42 GB ] Изгоняющий дьявола / Экзорцист / The Exorcist / Сезон: 2 / Серии 1-10 из 10 [2017 WEB-DLRip] MVO [NewStudio] GEKADOL Скачать
    1 | 0


    Последний раз редактировалось: GEKADOL (2017-12-17 23:14), всего редактировалось 15 раз(а)

    28-11-2019 20:33  

    Отключить всю рекламу на сайте

    08-10-2017 04:18 Изгоняющий дьявола Скачать торрент  

    Заменена 1 серия на PROPER!!!! pb.wtf



    20-12-2017 00:57 Изгоняющий дьявола Скачать торрент  

    присутствует рекламаpb.wtf



      Дорогой пользователь! Огромная просьба, поблагодарите релизера, оцените раздачу и оставьте свои комментарий, если Вы скачали Изгоняющий дьявола через торрент бесплатно! Внесите свою лепту в развитие PiratBit!
      Комментировать посты могут только пользователи прошедшие не сложную регистрацию
      Показать сообщения:    

      Изгоняющий дьявола через торрент
      Скачать бесплатно Изгоняющий дьявола
      Изгоняющий дьявола скачать торрент
      Изгоняющий дьявола смотреть онлайн
      Cкачать фильм Изгоняющий дьявола бесплатно
      Изгоняющий дьявола скачать торрент в хорошем качестве
      Изгоняющий дьявола смотреть онлайн бесплатно в хорошем качестве


      Вы не можете начинать темы
      Вы не можете отвечать на сообщения
      Вы не можете редактировать свои сообщения
      Вы не можете удалять свои сообщения
      Вы не можете голосовать в опросах
      Вы не можете прикреплять файлы к сообщениям
      Вы можете скачивать файлы