Anonymous, добрый день, присоединяйтесь к нам в Telegram!, здесь всегда актуальный адрес сайта, оперативная поддержка и многое другое!

>

5.6

iTunes

7.4

iTunes

5.7

MVO

1

7.7

1 сезон

6.8

iTunes

7.3

1 сезон

13

6.7

1 сезон

8.3

RePack

30

ULTIMATE

pack

9.9

Лицензия

ВАЖНО

ИГРА 18+

pack

7.3

RePack

MK11

7.7

RePack

jed

7.8

RePack

fifa19

8.5

RePack

RDR2

RePack

NEED FOR SPEED™ PAYBACK

4 сезон

9 сезон

Бесстыжие 9 сезон

Все сериалы

все сериалы на PB.wtf

RePack

FAR CRY 5

Anonymous, добрый день, мы катастрофически не успеваем собрать деньги на оплату серверов, помогите нам пожалуйста 5,10,15р., для нас важна любая помощь . В качестве благодарности мы отключим Вам всю рекламу на сайте (укажите свой ник в строку Ваше имя)!

×
  
Magnet ссылка

Улица / Сезон 1 / Серии 1-77 из 80 (Жанна Кадникова, Николай Бурлак, Михаил Соловьёв) [2017, Драма, комедия, мелодрама, триллер, WEB-DL 720p] pb.wtf

Улица через торрент pb.wtf

Размер: 46.32 GB | Добавлен: 3 года 7 мес. назад | Торрент скачан:31 раз
Смотреть онлайн Улица | Скачать    Ребята, помогите собрать деньги на оплату серверов!!!

03-10-2017 12:12 Улица Скачать торрент  

УлицаГод выпуска: 2017
Страна: Россия
Производство: Кинокомпания «ГудСториМедиа»
Жанр: Драма, комедия, мелодрама, триллер
Продолжительность: 77 x ~ 00:27:00
Перевод: Не требуется
Субтитры: Нет
Реклама: Отсутствует



Режиссер: Жанна Кадникова, Николай Бурлак, Михаил Соловьёв

В ролях:

Егор Клинаев, Ольга Баранова, Владимир Хацкевич, Екатерина Седик, Павел Савинков, Сергей Змичеревский, Артемий Падалка, Марина Богатова, Ксения Жданова, Марта Дромашко, Александр Терехов

Описание:

«Улица» — это история жителей одной из улиц спального района большого города. Школьники и студенты, домохозяйки и продавцы, олигархи и простые рабочие — здесь встретятся более 30 персонажей разного возраста и социального статуса, у каждого из них своя история. В большой Вселенной «Улицы» нет главных и второстепенных героев, здесь есть бурная жизнь с ее радостями, горестями, казусами и косяками, страхами, любовными переживаниями и трагедиями. Это история про всех нас и наших соседей.

Качество: WEB-DL 720p
Формат: MKV
Видео кодек: H.264
Аудио кодек: AC3

Видео: 1280x720 (16:9), 25 fps, MPEG-4 AVC ~3 500 kbps avg, 0.151 bit/pixel
Аудио: 48 KHz, AC3, 2 ch, ~192.00 kbps avg
скриншот   скриншот   скриншот   скриншот  

Общее
Уникальный идентификатор : 234905742498177663947741151670937796869 (0xB0B9334AB31A62B28906F6437F3B4105)
Полное имя : D:\Ulica.2017.WEB-DL(720p).OlLanDGroup\01.Ulica.2017.WEB-DL(720p).OlLanDGroup.mkv
Формат : Matroska
Версия формата : Version 2
Размер файла : 741 Мбайт
Продолжительность : 27 м. 35 с.
Общий поток : 3755 Кбит/сек
Дата кодирования : UTC 2017-10-02 17:38:09
Программа кодирования : mkvmerge v7.8.0 ('River Man') 32bit built on Apr 3 2015 12:11:22
Библиотека кодирования : libebml v1.3.1 + libmatroska v1.4.2

Видео
Идентификатор : 1
Формат : AVC
Формат/Информация : Advanced Video Codec
Профиль формата : High@L3.1
Параметр CABAC формата : Да
Параметр ReFrames формата : 1 кадр
Параметр GOP формата : M=1, N=12
Идентификатор кодека : V_MPEG4/ISO/AVC
Продолжительность : 27 м. 35 с.
Битрейт : 3488 Кбит/сек
Ширина : 1280 пикселей
Высота : 720 пикселей
Соотношение сторон : 16:9
Режим частоты кадров : Постоянный
Частота кадров : 25,000 кадров/сек
Стандарт вещания : Component
Цветовое пространство : YUV
Субдискретизация насыщенности : 4:2:0
Битовая глубина : 8 бит
Тип развёртки : Прогрессивная
Бит/(Пиксели*Кадры) : 0.151
Размер потока : 688 Мбайт (93%)
Default : Да
Forced : Нет
Цветовой диапазон : Limited

Аудио
Идентификатор : 2
Формат : AC-3
Формат/Информация : Audio Coding 3
Расширение режима : CM (complete main)
Параметр Endianness формата : Big
Идентификатор кодека : A_AC3
Продолжительность : 27 м. 35 с.
Вид битрейта : Постоянный
Битрейт : 192 Кбит/сек
Каналы : 2 канала
Расположение каналов : Front: L R
Частота : 48,0 КГц
Частота кадров : 31,250 кадров/сек (1536 spf)
Метод сжатия : С потерями
Размер потока : 37,9 Мбайт (5%)
Default : Да
Forced : Нет

Когда раздача ведётся путём добавления новых серий, при каждом добавлении создётся новый торрент. Чтобы начать докачку новой серии, пользователям необходимо сделать следующее:
(1) остановить скачивание,
(2) удалить старый торрент у себя из клиента (старые серии удалять не надо),
(3) скачать новый торрент и запустить его у себя в клиенте вместо старого, при этом указать клиенту путь в старую папку, куда и должно происходить скачивание новых серий.
Ваш клиент при этом должен произвести хеширование (проверку) старой папки (если не производит сам - помогите ему сделать это), и будет докачивать только те серии, которых у вас ещё нет. Старые серии при этом не удаляются, а продолжают раздаваться!
Eсли вы уже удалили старые серии, то предотвратить повторную закачку старых серий можно, отжав галочку в соответсвующих местах при запуске нового торрента. По возможности, желательно не удалять старые серии как можно дольше, чтобы релизёр не столько продолжал раздавать старые серии, а смог сконцентрироваться на новых.
pb.wtf



Скачать Улица через торрент http://s019.radikal.ru/i619/1710/6c/bcf94f2cf9e4.jpg Скачать, смотреть онлайн Улица бесплантно в хорошем качестве Описание: «Улица» — это история жителей одной из улиц спального района большого города. Школьники и студенты, домохозяйки и продавцы, ... 9.1 10 16
Info! Золотая раздача, скачанное не засчитывается.
Торрент: Зарегистрирован [2018-02-17 03:04] · скачан: 31 раз
Статус: √ проверено
Размер: 46.32 GB
Как cкачать? Как скачать Улица через торрент | UTorrent



Последний раз редактировалось: bober100 (2018-02-17 03:04), всего редактировалось 21 раз(а)

28-11-2019 20:33  

Отключить всю рекламу на сайте

    Дорогой пользователь! Огромная просьба, поблагодарите релизера, оцените раздачу и оставьте свои комментарий, если Вы скачали Улица через торрент бесплатно!
    Комментировать посты могут только пользователи прошедшие не сложную регистрацию
    Показать сообщения:    

    Улица через торрент
    Скачать бесплатно Улица
    Улица скачать торрент
    Улица смотреть онлайн
    Cкачать фильм Улица бесплатно
    Улица скачать торрент в хорошем качестве
    Улица смотреть онлайн бесплатно в хорошем качестве


    Вы не можете начинать темы
    Вы не можете отвечать на сообщения
    Вы не можете редактировать свои сообщения
    Вы не можете удалять свои сообщения
    Вы не можете голосовать в опросах
    Вы не можете прикреплять файлы к сообщениям
    Вы можете скачивать файлы