новый адрес пиратбит piratbit
Мега распродажа FORZA HORIZON 4 ULTIMATE+ВСЕ DLC+ОНЛАЙН всего за 499р. 349 руб. (супер цена). Внимание количество ограничено!!!

iTunes

1+1

iTunes

мы

iTunes

1

iTunes

Чернобыль

iTunes

Ральф против интернета

Лицензия

ПШазам

Лицензия

Игра престолов

Лицензия

30
pack

ВАЖНО

!!Акция!!

Alien_RageХит недели

RePack

Resident Evil 21

ИГРА 18+

pack

RePack

Metro:Exodus

!!Акция!!

Alien_Rage

RePack

fifa19

RePack

Assassins Creed: Odyssey

RePack

NEED FOR SPEED™ PAYBACK

3 сезон

9 сезон

Бесстыжие 9 сезон

Все сериалы

все сериалы на PB.wtf

RePack

FAR CRY 5
Ребята, катастрофически не хватает 1900р. для оплаты серверов за Октябрь (всвязи с блокировками трафик упал в 3 раза), 1-2р., выручайте.
  

Мумия / The Mummy (Алекс Куртцман ) [2017, фэнтези, боевик, триллер, BDRip-AVC от potroks] Dub [Лицензия] pb.wtf

Мумия через торрент pb.wtf

Размер: 1.46 GB | Добавлен: 2 года 1 мес. назад | Торрент скачан:398 раз
Скачать  

03-10-2017 12:39 Мумия Скачать торрент  

Мумия / The Mummy

Год выпуска: 2017
Страна: США / Universal Pictures...
Жанр: фэнтези, боевик, триллер, приключения
Продолжительность: 01:50:05
Перевод: Дубляж [Blu-ray EUR]
Субтитры: русские (полные + форс.)
Навигация по главам: есть

Режиссер: Алекс Куртцман
В ролях:

Том Круз (Nick Morton), Рассел Кроу (Dr. Henry Jekyll), Аннабелль Уоллис (Jenny Halsey), София Бутелла (Ahmanet), Джейк Джонсон (Chris Vail), Кортни Б. Вэнс (Colonel Greenway), Марван Кензари (Malik), Саймон Атертон (Crusader), Стивен Томпсон (First Man), Джеймс Арама (Second Man), Мэтт Уилкас (Reporter), Зом Капила (Reporter)

Описание: Посреди безжалостной пустыни в величественном саркофаге погребена дочь египетского фараона, но настанет день, и она явится в наш мир вернуть себе то, что принадлежит ей по праву. Отныне миром правят боги и монстры.



Качество: BDRip-AVC
Формат: MKV
Видео: AVC, 960x400 (2.40:1), 1452 kbps, 23,976 fps
Аудио: русский / AC3 / 5.1 / 48 kHz / 448 kbps
General
Unique ID : 235855197197638028796805009134291269025 (0xB1700F05CC6D5C65B8F59E3ABCD035A1)
Complete name : D:\Mumiya.2017.RUS.BDRip.x264.-HELLYWOOD.mkv
Format : Matroska
Format version : Version 4 / Version 2
File size : 1.46 GiB
Duration : 1 h 50 min
Overall bit rate : 1 901 kb/s
Movie name : The Mummy (2017)
Encoded date : UTC 2017-10-03 12:15:05
Writing application : mkvmerge v5.9.0 ('On The Loose') built on Dec 15 2012 16:39:58
Writing library : libebml v1.3.0 + libmatroska v1.4.0

Video
ID : 1
Format : AVC
Format/Info : Advanced Video Codec
Format profile : High@L4.1
Format settings, CABAC : Yes
Format settings, ReFrames : 12 frames
Codec ID : V_MPEG4/ISO/AVC
Duration : 1 h 50 min
Bit rate : 1 452 kb/s
Width : 960 pixels
Height : 400 pixels
Display aspect ratio : 2.40:1
Frame rate mode : Constant
Frame rate : 23.976 (24000/1001) FPS
Color space : YUV
Chroma subsampling : 4:2:0
Bit depth : 8 bits
Scan type : Progressive
Bits/(Pixel*Frame) : 0.158
Stream size : 1.09 GiB (74%)
Title : potroks
Writing library : x264 core 152 r2851M ba24899
Encoding settings : cabac=1 / ref=12 / deblock=1:0:0 / analyse=0x3:0x133 / me=umh / subme=11 / psy=1 / psy_rd=0.96:0.01 / mixed_ref=1 / me_range=48 / chroma_me=1 / trellis=2 / 8x8dct=1 / cqm=0 / deadzone=21,11 / fast_pskip=0 / chroma_qp_offset=-3 / threads=9 / lookahead_threads=2 / sliced_threads=0 / nr=0 / decimate=0 / interlaced=0 / bluray_compat=0 / constrained_intra=0 / bframes=13 / b_pyramid=2 / b_adapt=2 / b_bias=0 / direct=3 / weightb=1 / open_gop=0 / weightp=2 / keyint=240 / keyint_min=23 / scenecut=40 / intra_refresh=0 / rc_lookahead=0 / rc=2pass / mbtree=0 / bitrate=1452 / ratetol=1.0 / qcomp=0.70 / qpmin=0 / qpmax=69 / qpstep=4 / cplxblur=20.0 / qblur=0.5 / vbv_maxrate=62500 / vbv_bufsize=44642 / nal_hrd=none / filler=0 / ip_ratio=1.40 / pb_ratio=1.30 / aq=1:0.80
Language : English
Default : Yes
Forced : No

Audio
ID : 2
Format : AC-3
Format/Info : Audio Coding 3
Mode extension : CM (complete main)
Format settings, Endianness : Big
Codec ID : A_AC3
Duration : 1 h 50 min
Bit rate mode : Constant
Bit rate : 448 kb/s
Channel(s) : 6 channels
Channel positions : Front: L C R, Side: L R, LFE
Sampling rate : 48.0 kHz
Frame rate : 31.250 FPS (1536 spf)
Compression mode : Lossy
Stream size : 353 MiB (24%)
Title : Dub | DD 5.1 @ 448 kbps - Blu-ray EUR
Language : Russian
Default : Yes
Forced : No

Text #1
ID : 3
Format : UTF-8
Codec ID : S_TEXT/UTF8
Codec ID/Info : UTF-8 Plain Text
Title : Forced
Language : Russian
Default : Yes
Forced : No

Text #2
ID : 4
Format : UTF-8
Codec ID : S_TEXT/UTF8
Codec ID/Info : UTF-8 Plain Text
Title : Blu-ray CEE
Language : Russian
Default : No
Forced : No

Menu
00:00:00.000 : en:(01)00:00:00:000
00:08:18.706 : en:(02)00:08:18:706
00:13:18.923 : en:(03)00:13:18:923
00:19:31.461 : en:(04)00:19:31:461
00:24:40.145 : en:(05)00:24:40:145
00:28:54.107 : en:(06)00:28:54:107
00:35:41.389 : en:(07)00:35:41:389
00:39:36.040 : en:(08)00:39:36:040
00:47:00.067 : en:(09)00:47:00:067
00:50:57.637 : en:(10)00:50:57:637
00:56:49.739 : en:(11)00:56:49:739
01:00:43.848 : en:(12)01:00:43:848
01:08:58.008 : en:(13)01:08:58:008
01:16:03.850 : en:(14)01:16:03:850
01:19:38.440 : en:(15)01:19:38:440
01:23:16.408 : en:(16)01:23:16:408
01:26:26.848 : en:(17)01:26:26:848
01:33:34.942 : en:(18)01:33:34:942
01:37:02.983 : en:(19)01:37:02:983
01:39:47.982 : en:(20)01:39:47:982
01:50:05.432 : en:(21)01:50:05:432
pb.wtf



Скачать Мумия через торрент http://i3.imageban.ru/out/2017/10/03/c83091dc858255e031740d6a1abf4c76.png Скачать фильм Мумия через торрент бесплантно в хорошем качестве Описание: Посреди безжалостной пустыни в величественном саркофаге погребена дочь египетского фараона, но настанет день, и она явится в наш ... 9.3 10 8
Info! Золотая раздача, скачанное не засчитывается.
Торрент: Зарегистрирован [2017-10-03 12:39] · скачан: 398 раз
Статус: √ проверено
Размер: 1.46 GB
Как cкачать? Как скачать Мумия через торрент | qTorrent

% Раздел Тема Автор DL S | L
Фильмы (HD 720p, 1080p) (48-60 fps) [ 9.17 GB ] Мумия / The Mummy [2017 BDRip 720p / 60 FPS Dub AVO Original] Tiberiumsun69 Скачать
9 | 1
Фильмы (Blu-ray, BD-Remux, HDDVD) [ 36.73 GB ] Мумия / The Mummy [2017 BDRemux 1080p] DUB [] + 3xAVO sheker187 Скачать
1 | 0
National Geographic [ 1.18 GB ] National Geographic: Тайна гималайских мумий / Mystery of the Himalayan Mummies [2016 документальный DVB] VO Armstrong Скачать
1 | 0
Фильмы [HD 720p, 1080p] (Хороший звук DUB, MVO) [ 5.96 GB ] Мумия возвращается / The Mummy Returns [2001 HDDVDRip 1080p HEVC ] Мичман37 Скачать
1 | 0
Фильмы [HD 720p, 1080p] (Хороший звук DUB, MVO) [ 5.41 GB ] Мумия: Гробница Императора Драконов / The Mummy: Tomb of the Dragon Emperor [2008 BDRip 1080p HEVC ] Мичман37 Скачать
2 | 0
Фильмы [HD 720p, 1080p] (Хороший звук DUB, MVO) [ 5.54 GB ] Мумия / The Mummy [1999 HDDVDRip 1080p HEVC ] Мичман37 Скачать
2 | 0
T Фильмы (мультфильмы) cо спонсором показа (Новинки AVI/MKV) [ 2.91 GB ] Моя любимая мумия 2 / Dummie the Mummy and the Tomb of Achnetu [2017 WEB-DL 720p] MVO ["Синема УС"] bober100 Скачать
1 | 0


>> Регистрируемся здесь <<






Отзывы и комментарии о схеме читаем и пишем здесь: ---> Отзывы и комментарии о схеме

Новые благодарочки в телеграм довольных пользователей:
скриншот   скриншот   скриншот   скриншот   скриншот

03-10-2017 12:40 Мумия Скачать торрент  

Рип без английского хардсаба.pb.wtf



    Дорогой пользователь! Огромная просьба, поблагодарите релизера, оцените раздачу и оставьте свои комментарий, если Вы скачали Мумия через торрент бесплатно! Внесите свою лепту в развитие PiratBit!
    Комментировать посты могут только пользователи прошедшие не сложную регистрацию
    Показать сообщения:    

    Мумия через торрент
    Скачать бесплатно Мумия
    Мумия скачать торрент
    Мумия смотреть онлайн
    Cкачать фильм Мумия бесплатно
    Мумия скачать торрент в хорошем качестве
    Мумия смотреть онлайн бесплатно в хорошем качестве


    Вы не можете начинать темы
    Вы не можете отвечать на сообщения
    Вы не можете редактировать свои сообщения
    Вы не можете удалять свои сообщения
    Вы не можете голосовать в опросах
    Вы не можете прикреплять файлы к сообщениям
    Вы можете скачивать файлы