Ссылка на приватное зеркало нашего сайта всего за 1$. Внимание количество ограничено!!!

2 сезон

iTunes

1 сезон

1

iTunes

iTunes

iTunes

1 сезон

RePack

30

ИГРА 18+

pack

ВАЖНО

!!Акция!!

Alien_RageХит недели

RePack

MK11
pack

Забери бонус

RePack

jed

!!Акция!!

Alien_Rage

RePack

fifa19

RePack

Assassins Creed: Odyssey

RePack

NEED FOR SPEED™ PAYBACK

4 сезон

9 сезон

Бесстыжие 9 сезон

Все сериалы

все сериалы на PB.wtf

RePack

FAR CRY 5
  

Босс-молокосос / The Boss Baby (Том МакГрат / Tom McGrath) [2017, США, мультфильм, комедия, семейный, BDRip-AVC] Dub [Лицензия] pb.wtf

Босс-молокосос через торрент pb.wtf

Раздают: 1 [ 23 KB/s ]
Размер: 2.15 GB | Добавлен: 3 года назад | Торрент скачан:578 раз
Скачать  

03-10-2017 14:43 Босс-молокосос Скачать торрент  

Босс-молокосос
The Boss Baby

«Прирождённый лидер»


Страна: США
Жанр: мультфильм, комедия, семейный

Год выпуска: 2017
Продолжительность: 01:37:30

Перевод: Профессиональный (полное дублирование) [Blu-ray EUR]
Субтитры: русские (форсированные, полные), украинские (полные), английские (форсированные, полные, SDH, SDH цветные)
Оригинальная аудиодорожка: английский

Режиссер: Том МакГрат / Tom McGrath

В ролях: Алек Болдуин, Майлз Кристофер Бакши, Тоби Магуайр, Стив Бушеми, Джимми Киммел, Лиза Кудроу, Конрад Вернон, Джеймс МакГрат, Дэвид Сорен, ВивиЭнн Йи, Эрик Белл мл., Эди Мирман

Описание:
Эта актуальная во все времена история для взрослых и детей рассказывается от лица семилетнего брата новорожденного - фантазера Тима, который ревнует его к родителям. Но главный герой - совсем не простой ребенок, он обладает лидерскими задатками, уже носит деловые костюмы и во всем видит бизнес-задачу.



Релиз:

Автор рипа: stalkerok | Моя группа

Сэмпл

Качество видео: BDRip-AVC [The Boss Baby (2017) Blu-Ray EUR 1080p]
Формат видео: MKV
Видео кодек: AVC
Аудио кодек: AC3
Видео: 2252 Кбит/сек, 1120*476 (2,35:1), в 23,976 (24000/1001) кадра/сек, AVC
Аудио #1: русский, 448 Кбит/сек, 48 КГц, 5.1, AC3
Аудио #2: английский, 448 Кбит/сек, 48 КГц, 5.1, AC3
Навигация по главам: есть

x264 [info]: frame I:1336 Avg QP:14.93 size: 67084
x264 [info]: frame P:38061 Avg QP:18.38 size: 21691
x264 [info]: frame B:100882 Avg QP:21.08 size: 7256

Общее
Уникальный идентификатор : 249439347085376493311380684540180659172 (0xBBA845523B6D01919740F358D98F7BE4)
Полное имя : M:\!Rips2017\The Boss Baby\The.Boss.Baby.2017.BDRip-AVC.RUS.ENG.stalkerok.new-team.mkv
Формат : Matroska
Версия формата : Version 4 / Version 2
Размер файла : 2,15 Гбайт
Продолжительность : 1 ч. 37 м.
Общий поток : 3151 Кбит/сек
Название фильма : The Boss Baby (2017) (Rip by stalkerok)
Дата кодирования : UTC 2017-10-03 12:36:35
Программа кодирования : mkvmerge v8.6.1 ('Flying') 64bit
Библиотека кодирования : libebml v1.3.3 + libmatroska v1.4.4

Видео
Идентификатор : 1
Формат : AVC
Формат/Информация : Advanced Video Codec
Профиль формата : High@L4.1
Параметр CABAC формата : Да
Параметр ReFrames формата : 14 кадров
Идентификатор кодека : V_MPEG4/ISO/AVC
Продолжительность : 1 ч. 37 м.
Битрейт : 2252 Кбит/сек
Ширина : 1120 пикселей
Высота : 476 пикселей
Соотношение сторон : 2,35:1
Режим частоты кадров : Постоянный
Частота кадров : 23,976 (24000/1001) кадра/сек
Цветовое пространство : YUV
Субдискретизация насыщенности : 4:2:0
Битовая глубина : 8 бит
Тип развёртки : Прогрессивная
Бит/(Пиксели*Кадры) : 0.176
Размер потока : 1,53 Гбайт (71%)
Заголовок : The Boss Baby (2017) (Rip by stalkerok)
Библиотека кодирования : x264 core 150 r2833kMod df79067
Настройки программы : cabac=1 / ref=14 / deblock=1:-3:-2 / analyse=0x3:0x133 / me=umh / subme=11 / psy=1 / fade_compensate=0.00 / psy_rd=1.00:0.00 / mixed_ref=1 / me_range=32 / chroma_me=1 / trellis=2 / 8x8dct=1 / cqm=0 / deadzone=21,11 / fast_pskip=0 / chroma_qp_offset=-2 / threads=12 / lookahead_threads=3 / sliced_threads=0 / nr=0 / decimate=1 / interlaced=0 / bluray_compat=0 / constrained_intra=0 / bframes=14 / b_pyramid=2 / b_adapt=2 / b_bias=0 / direct=3 / weightb=1 / open_gop=0 / weightp=2 / keyint=240 / keyint_min=23 / scenecut=40 / intra_refresh=0 / rc_lookahead=60 / rc=crf / mbtree=0 / crf=17.0000 / qcomp=0.65 / qpmin=0 / qpmax=69 / qpstep=4 / vbv_maxrate=50000 / vbv_bufsize=62500 / crf_max=0.0 / nal_hrd=none / filler=0 / ip_ratio=1.40 / pb_ratio=1.27 / aq=3:0.80 / zones=126011,139783,q=32
Default : Да
Forced : Нет

Аудио #1
Идентификатор : 2
Формат : AC-3
Формат/Информация : Audio Coding 3
Расширение режима : CM (complete main)
Параметр Endianness формата : Big
Идентификатор кодека : A_AC3
Продолжительность : 1 ч. 37 м.
Вид битрейта : Постоянный
Битрейт : 448 Кбит/сек
Каналы : 6 каналов
Расположение каналов : Front: L C R, Side: L R, LFE
Частота : 48,0 КГц
Частота кадров : 31,250 кадров/сек (1536 spf)
Метод сжатия : С потерями
Размер потока : 312 Мбайт (14%)
Язык : Russian
Default : Да
Forced : Нет

Аудио #2
Идентификатор : 3
Формат : AC-3
Формат/Информация : Audio Coding 3
Расширение режима : CM (complete main)
Параметр Endianness формата : Big
Идентификатор кодека : A_AC3
Продолжительность : 1 ч. 37 м.
Вид битрейта : Постоянный
Битрейт : 448 Кбит/сек
Каналы : 6 каналов
Расположение каналов : Front: L C R, Side: L R, LFE
Частота : 48,0 КГц
Частота кадров : 31,250 кадров/сек (1536 spf)
Метод сжатия : С потерями
Размер потока : 312 Мбайт (14%)
Язык : English
Default : Нет
Forced : Нет

Текст #1
Идентификатор : 4
Формат : UTF-8
Идентификатор кодека : S_TEXT/UTF8
Идентификатор кодека/Информация : UTF-8 Plain Text
Продолжительность : 1 ч. 19 м.
Битрейт : 0 бит/сек
Count of elements : 21
Размер потока : 437 байт (0%)
Заголовок : Forced
Язык : Russian
Default : Да
Forced : Нет

Текст #2
Идентификатор : 5
Формат : UTF-8
Идентификатор кодека : S_TEXT/UTF8
Идентификатор кодека/Информация : UTF-8 Plain Text
Продолжительность : 1 ч. 36 м.
Битрейт : 93 бит/сек
Count of elements : 1587
Размер потока : 65,9 Кбайт (0%)
Язык : Russian
Default : Нет
Forced : Нет

Текст #3
Идентификатор : 6
Формат : UTF-8
Идентификатор кодека : S_TEXT/UTF8
Идентификатор кодека/Информация : UTF-8 Plain Text
Продолжительность : 1 ч. 36 м.
Битрейт : 96 бит/сек
Count of elements : 1592
Размер потока : 68,5 Кбайт (0%)
Язык : Ukrainian
Default : Нет
Forced : Нет

Текст #4
Идентификатор : 7
Формат : UTF-8
Идентификатор кодека : S_TEXT/UTF8
Идентификатор кодека/Информация : UTF-8 Plain Text
Продолжительность : 17 с.
Битрейт : 63 бит/сек
Count of elements : 9
Размер потока : 136 байт (0%)
Заголовок : Forced
Язык : English
Default : Нет
Forced : Нет

Текст #5
Идентификатор : 8
Формат : UTF-8
Идентификатор кодека : S_TEXT/UTF8
Идентификатор кодека/Информация : UTF-8 Plain Text
Продолжительность : 1 ч. 36 м.
Битрейт : 57 бит/сек
Count of elements : 1574
Размер потока : 40,6 Кбайт (0%)
Язык : English
Default : Нет
Forced : Нет

Текст #6
Идентификатор : 9
Формат : UTF-8
Идентификатор кодека : S_TEXT/UTF8
Идентификатор кодека/Информация : UTF-8 Plain Text
Продолжительность : 1 ч. 36 м.
Битрейт : 71 бит/сек
Count of elements : 2013
Размер потока : 50,6 Кбайт (0%)
Заголовок : SDH
Язык : English
Default : Нет
Forced : Нет

Текст #7
Идентификатор : 10
Формат : UTF-8
Идентификатор кодека : S_TEXT/UTF8
Идентификатор кодека/Информация : UTF-8 Plain Text
Продолжительность : 1 ч. 37 м.
Битрейт : 102 бит/сек
Count of elements : 2015
Размер потока : 73,3 Кбайт (0%)
Заголовок : SDH Colored
Язык : English
Default : Нет
Forced : Нет

Меню
00:00:00.000 : en:Chapter 1
00:03:45.892 : en:Chapter 2
00:08:58.287 : en:Chapter 3
00:11:45.913 : en:Chapter 4
00:14:59.565 : en:Chapter 5
00:19:38.218 : en:Chapter 6
00:22:52.788 : en:Chapter 7
00:28:27.247 : en:Chapter 8
00:30:26.115 : en:Chapter 9
00:33:45.481 : en:Chapter 10
00:36:57.256 : en:Chapter 11
00:39:18.356 : en:Chapter 12
00:42:35.344 : en:Chapter 13
00:46:20.611 : en:Chapter 14
00:51:37.719 : en:Chapter 15
00:53:25.285 : en:Chapter 16
00:56:28.718 : en:Chapter 17
00:59:35.405 : en:Chapter 18
01:04:03.172 : en:Chapter 19
01:08:15.758 : en:Chapter 20
01:11:29.910 : en:Chapter 21
01:16:25.247 : en:Chapter 22
01:23:10.110 : en:Chapter 23
01:27:36.960 : en:Chapter 24
скриншот   скриншот   скриншот   скриншот   скриншот   скриншот   скриншот  
pb.wtf



Скачать Босс-молокосос через торрент http://i6.imageban.ru/out/2017/09/18/2ff75c0c358795c5946784cc1680714d.png Скачать фильм Босс-молокосос через торрент бесплантно в хорошем качестве Описание:Эта актуальная во все времена история для взрослых и детей рассказывается от лица семилетнего брата новорожденного - фантазера ... 9.2 10 5
Info! Золотая раздача, скачанное не засчитывается.
Торрент: Зарегистрирован [2017-10-03 14:43] · скачан: 578 раз
Статус: √ проверено
Размер: 2.15 GB
Как cкачать? Как скачать Босс-молокосос через торрент | qTorrent

% Раздел Тема Автор DL S | L
R.G.Resident - Мультфильмы, Видео [ 3.45 GB ] Босс-молокосос / The Boss Baby [2017 мультфильм BDRip 720p] - - R.G.Resident schultz Скачать
1 | 0
Ultra HD (UHD: 2K, 4K, 8K) [ 25.53 GB ] Босс-молокосос / The Boss Baby [2017 мультфильм UHD BDRemux 2160p] DUB [] + AVO [А. Карповский] sheker187 Скачать
1 | 0
Зарубежные Мультфильмы (BDRip 1080p, 720p, Blu-ray, BD-Remux) [ 3.46 GB ] Босс-молокосос / The Boss Baby [2017 Мультфильм BDRip 1080p HEVC ()] Мичман37 Скачать
1 | 0
Мультсериалы [ 17.26 GB ] Босс-молокосос: Снова в деле / The Boss Baby: Back in Business / Сезоны: 1-2 / Серии: 1-26 из 26 [2018 мультфильм WEB-DL 1080p] MVO [AlexFilm] bober100 Скачать
2 | 0
Фильмы с авторской озвучкой [ 1.46 GB ] Босс-молокосос / The Boss Baby [2017 Мультфильм BDRip] [AVO] killermax2013 Скачать
1 | 0
Ultra HD (UHD: 2K, 4K, 8K) [ 22.17 GB ] Босс-молокосос / The Boss Baby [2017 Мультфильм UHD BDRemux 2160p] DUB [ Blu-ray CEE] bober100 Скачать
1 | 0
Иностранные мультфильмы [ 746 MB ] Босс-молокосос / The Boss Baby [2017 мультфильм BDRip-AVC] sokol_ok Скачать
1 | 0

28-11-2019 20:33  

Отключить всю рекламу на сайте

    Дорогой пользователь! Огромная просьба, поблагодарите релизера, оцените раздачу и оставьте свои комментарий, если Вы скачали Босс-молокосос через торрент бесплатно! Внесите свою лепту в развитие PiratBit!
    Комментировать посты могут только пользователи прошедшие не сложную регистрацию
    Показать сообщения:    

    Босс-молокосос через торрент
    Скачать бесплатно Босс-молокосос
    Босс-молокосос скачать торрент
    Босс-молокосос смотреть онлайн
    Cкачать фильм Босс-молокосос бесплатно
    Босс-молокосос скачать торрент в хорошем качестве
    Босс-молокосос смотреть онлайн бесплатно в хорошем качестве


    Вы не можете начинать темы
    Вы не можете отвечать на сообщения
    Вы не можете редактировать свои сообщения
    Вы не можете удалять свои сообщения
    Вы не можете голосовать в опросах
    Вы не можете прикреплять файлы к сообщениям
    Вы можете скачивать файлы