Ссылка на приватное зеркало нашего сайта всего за 1$. Внимание количество ограничено!!!

2 сезон

iTunes

1 сезон

1

2 сезон

2 сезон

iTunes

1 сезон

RePack

30

Ultimate

ВАЖНО

ИГРА 18+

pack

RePack

MK11
pack

Забери бонус

RePack

jed

!!Акция!!

Alien_Rage

RePack

fifa19

RePack

Assassins Creed: Odyssey

RePack

NEED FOR SPEED™ PAYBACK

4 сезон

9 сезон

Бесстыжие 9 сезон

Все сериалы

все сериалы на PB.wtf

RePack

FAR CRY 5
  

Одарённые / The Gifted / Сезон: 1 / Серии: 1-13 из 13 (Брайан Сингер) [2017, фантастика, фэнтези, боевик, WEBRip 1080р] MVO [IdeaFilm] pb.wtf

Одарённые через торрент pb.wtf

Размер: 31.65 GB | Добавлен: 2 года 10 мес. назад | Торрент скачан:0 раз
Скачать  

03-10-2017 15:43 Одарённые Скачать торрент  

Одарённые / The GiftedГод выпуска: 2017
Страна: США
Жанр: фантастика, фэнтези, боевик
Продолжительность: 13 x ~ 00:50:00
Перевод: Любительский (многоголосый) | IdeaFilm
Субтитры: отсутствуют

Режиссер: Брайан Сингер

rating

В ролях:

Колин Битон, Эми Акер, Стеффан Аргус, Билли Блэр, Джейсон Бремер, Пол Каревей, Эмма Дюмон, Дэйл Годбольдо, Джессика Лия

Описание:

Сюжет строится вокруг двух обычных родителей, чьи дети открывают в себе сверхъестественные способности. Семья вынуждена скрываться от правительства, недружелюбно настроенного по отношению к юным мутантам, и присоединяется к подпольной организации суперлюдей.

Качество: WEBRip 1080р
Формат: MKV
Видео кодек: H.264
Аудио кодек: AC3/AAC

Видео: MPEG-4 AVC, ~ 6000 Кбит/с, 1920x1080
Аудио#1: Русский (AC3, 2 ch, 192 Кбит/с)
Аудио#2: английский (AAC, 2 ch, 127 Кбит/с)
скриншот   скриншот   скриншот  

Общее
Уникальный идентификатор : 223302866927343558128223206757605856831 (0xA7FE915BE24F44ECA1A7D2934C50563F)
Полное имя : D:\The.Gifted.S01.WEBRip.1080p\The.Gifted.S01E01.WEBRip.1080p-IDEAFILM.mkv
Формат : Matroska
Версия формата : Version 4 / Version 2
Размер файла : 2,05 Гбайт
Продолжительность : 47 м. 5 с.
Общий поток : 6228 Кбит/сек
Дата кодирования : UTC 2017-10-03 08:07:19
Программа кодирования : mkvmerge v12.0.0 ('Trust / Lust') 64bit
Библиотека кодирования : libebml v1.3.4 + libmatroska v1.4.5

Видео
Идентификатор : 1
Формат : AVC
Формат/Информация : Advanced Video Codec
Профиль формата : Main@L4.1
Параметр CABAC формата : Да
Параметр ReFrames формата : 3 кадра
Идентификатор кодека : V_MPEG4/ISO/AVC
Продолжительность : 47 м. 4 с.
Битрейт : 5910 Кбит/сек
Ширина : 1920 пикселей
Высота : 1080 пикселей
Соотношение сторон : 16:9
Режим частоты кадров : Постоянный
Частота кадров : 23,976 (24000/1001) кадра/сек
Стандарт вещания : NTSC
Цветовое пространство : YUV
Субдискретизация насыщенности : 4:2:0
Битовая глубина : 8 бит
Тип развёртки : Прогрессивная
Бит/(Пиксели*Кадры) : 0.119
Размер потока : 1,94 Гбайт (95%)
Язык : English
Default : Да
Forced : Нет
Цветовой диапазон : Limited
Основные цвета : BT.709
Характеристики трансфера : BT.709
Коэффициенты матрицы : BT.709

Аудио #1
Идентификатор : 2
Формат : AC-3
Формат/Информация : Audio Coding 3
Расширение режима : CM (complete main)
Параметр Endianness формата : Big
Идентификатор кодека : A_AC3
Продолжительность : 47 м. 5 с.
Вид битрейта : Постоянный
Битрейт : 192 Кбит/сек
Каналы : 2 канала
Расположение каналов : Front: L R
Частота : 48,0 КГц
Частота кадров : 31,250 кадров/сек (1536 spf)
Метод сжатия : С потерями
Размер потока : 64,7 Мбайт (3%)
Заголовок : IDEAFILM
Язык : Russian
Default : Да
Forced : Нет

Аудио #2
Идентификатор : 3
Формат : AAC
Формат/Информация : Advanced Audio Codec
Профиль формата : HE-AAC / LC
Идентификатор кодека : A_AAC
Продолжительность : 46 м. 25 с.
Битрейт : 127 Кбит/сек
Каналы : 2 канала
Расположение каналов : Front: L R
Частота : 48,0 КГц / 24,0 КГц
Частота кадров : 23,438 кадра/сек (1024 spf)
Метод сжатия : С потерями
Задержка видео : 40 с. 0 мс.
Размер потока : 42,0 Мбайт (2%)
Default : Нет
Forced : Нет

Когда раздача ведётся путём добавления новых серий, при каждом добавлении создётся новый торрент. Чтобы начать докачку новой серии, пользователям необходимо сделать следующее:
(1) остановить скачивание,
(2) удалить старый торрент у себя из клиента (старые серии удалять не надо),
(3) скачать новый торрент и запустить его у себя в клиенте вместо старого, при этом указать клиенту путь в старую папку, куда и должно происходить скачивание новых серий.
Ваш клиент при этом должен произвести хеширование (проверку) старой папки (если не производит сам - помогите ему сделать это), и будет докачивать только те серии, которых у вас ещё нет. Старые серии при этом не удаляются, а продолжают раздаваться!
Eсли вы уже удалили старые серии, то предотвратить повторную закачку старых серий можно, отжав галочку в соответсвующих местах при запуске нового торрента. По возможности, желательно не удалять старые серии как можно дольше, чтобы релизёр не столько продолжал раздавать старые серии, а смог сконцентрироваться на новых.
pb.wtf



Скачать Одарённые через торрент http://s018.radikal.ru/i507/1710/34/06f698cee446.jpg Скачать фильм Одарённые через торрент бесплантно в хорошем качестве Описание: Сюжет строится вокруг двух обычных родителей, чьи дети открывают в себе сверхъестественные способности. Семья вынуждена ... 10 10 5
Info! Золотая раздача, скачанное не засчитывается.
Торрент: Зарегистрирован [2018-01-18 07:04] · скачан: 0 раз
Статус: √ проверено
Размер: 31.65 GB
Как cкачать? Как скачать Одарённые через торрент | qTorrent

% Раздел Тема Автор DL S | L
Зарубежные сериалы [ 40.85 GB ] Одаренные / The Gifted / Сезон: 1 / Серии: 1-13 из 13 [2017 WEB-DL 1080p] MVO [LostFilm] bober100 Скачать
1 | 0
Зарубежные сериалы [ 6.99 GB ] Одарённые / The Gifted / Сезон 1 / Серии 1-13 из 13 [2017 WEB-DLRip] MVO [FOX] bober100 Скачать
1 | 0
Зарубежные сериалы [ 6.99 GB ] Одарённые / The Gifted / 1 сезон / Серии 1-13 из 13 [2017 WEB-DLRip] MVO [Jaskier] bober100 Скачать
1 | 0
Зарубежные сериалы [ 13.14 GB ] Одарённые / The Gifted / 1 сезон / Серии 1-13 из 13 [2017 WEB-DL 720p] MVO [Jaskier] bober100 Скачать
1 | 0
Зарубежные сериалы [ 15.23 GB ] Одарённые / The Gifted / 1 сезон / 1-13 серия из 13 [2017 WEBRip 720p] [MVO] killermax2013 Скачать
1 | 0
Зарубежные сериалы [ 6.99 GB ] Одарённые / The Gifted / Сезон: 1 / Серии: 1-13 из 13 [2017 WEB-DLRip] MVO [LostFilm] bober100 Скачать
3 | 0
Зарубежные сериалы [ 25.48 GB ] Одарённые / The Gifted / 1 сезон / 1-13 серия из 13 [2017 WEB-DLRip 1080p] [MVO] killermax2013 Скачать
1 | 0

28-11-2019 20:33  

Отключить всю рекламу на сайте

    Дорогой пользователь! Огромная просьба, поблагодарите релизера, оцените раздачу и оставьте свои комментарий, если Вы скачали Одарённые через торрент бесплатно! Внесите свою лепту в развитие PiratBit!
    Комментировать посты могут только пользователи прошедшие не сложную регистрацию
    Показать сообщения:    

    Одарённые через торрент
    Скачать бесплатно Одарённые
    Одарённые скачать торрент
    Одарённые смотреть онлайн
    Cкачать фильм Одарённые бесплатно
    Одарённые скачать торрент в хорошем качестве
    Одарённые смотреть онлайн бесплатно в хорошем качестве


    Вы не можете начинать темы
    Вы не можете отвечать на сообщения
    Вы не можете редактировать свои сообщения
    Вы не можете удалять свои сообщения
    Вы не можете голосовать в опросах
    Вы не можете прикреплять файлы к сообщениям
    Вы можете скачивать файлы