2 сезон

iTunes

MVO

1

2 сезон

iTunes

iTunes

1 сезон

RePack

30

Новинка

ВАЖНО

ИГРА 18+

pack

RePack

MK11
pack

Легкие деньги

RePack

jed

RePack

fifa19

RePack

RDR2

RePack

NEED FOR SPEED™ PAYBACK

4 сезон

9 сезон

Бесстыжие 9 сезон

Все сериалы

все сериалы на PB.wtf

RePack

FAR CRY 5

Anonymous, доброй ночи, мы не успеваем собрать деньги на оплату серверов за декабрь и январь, помогите нам пожалуйста в это трудное время. В качестве благодарности мы отключим Вам всю рекламу на сайте (укажите свой ник в строку Ваше имя)!

×
  
Magnet ссылка

Моя кузина Рэйчел / My Cousin Rachel (Роджер Мишелл / Roger Michell) [2017, Великобритания, США, драма, мелодрама, детектив, BDRip-AVC] MVO [Лицензия] pb.wtf

Моя кузина Рэйчел через торрент pb.wtf

Раздают: 1 [ 0 KB/s ]
Размер: 2.17 GB | Добавлен: 3 года 3 мес. назад | Торрент скачан:107 раз
Скачать  

03-10-2017 16:24 Моя кузина Рэйчел Скачать торрент  

Моя кузина Рэйчел
My Cousin Rachel


Страна: Великобритания, США
Жанр: драма, мелодрама, детектив

Год выпуска: 2017
Продолжительность: 01:46:08

Перевод: Профессиональный (многоголосый, закадровый) [Blu-ray CEE]
Субтитры: русские (полные), английские (полные, SDH, SDH цветные)
Оригинальная аудиодорожка: английский

Режиссер: Роджер Мишелл / Roger Michell

В ролях: Сэм Клафлин, Рэйчел Вайс, Иэн Глен, Холлидей Грейнджер, Поппи Ли Фрайер, Эндрю Нотт, Вики Пеппердин, Пьерфранческо Фавино, Эндрю Хавилл, Кэтерин Пирс, Тим Барлоу, Аттила Дж. Керекеш

Описание:
Филип очень привязан к своему приемному отцу Эмброузу. Однако во время поездки по Италии Эмброуз знакомится с Рэйчел, своей дальней родственницей, женится на ней и вскоре умирает. Филип уверен, что коварная красотка Рэйчел убила его опекуна, чтобы заполучить состояние супруга. Оттачивая план мести, он не замечает, как сам влюбляется в Рэйчел.



Релиз:

Автор рипа: stalkerok | Моя группа

Сэмпл

Качество видео: BDRip-AVC [My Cousin Rachel (2017) Blu-ray CEE 1080p]
Формат видео: MKV
Видео кодек: AVC
Аудио кодек: AC3
Видео: 2022 Кбит/сек, 1152*482 (2,40:1), в 23,976 (24000/1001) кадра/сек, AVC
Аудио #1: русский, 448 Кбит/сек, 48 КГц, 5.1, AC3
Аудио #2: английский, 448 Кбит/сек, 48 КГц, 5.1, AC3
Навигация по главам: есть

x264 [info]: frame I:955 Avg QP:15.25 size: 61531
x264 [info]: frame P:29437 Avg QP:17.71 size: 18750
x264 [info]: frame B:122307 Avg QP:19.69 size: 4997

Общее
Уникальный идентификатор : 240432958002024312878296682031320894381 (0xB4E1B40E4FA2D91C8C61B54824178BAD)
Полное имя : M:\!Rips2017\My Cousin Rachel\My.Cousin.Rachel.2017.BDRip-AVC.RUS.ENG.stalkerok.new-team.mkv
Формат : Matroska
Версия формата : Version 4 / Version 2
Размер файла : 2,17 Гбайт
Продолжительность : 1 ч. 46 м.
Общий поток : 2920 Кбит/сек
Название фильма : My Cousin Rachel (2017) (Rip by stalkerok)
Дата кодирования : UTC 2017-10-03 15:49:57
Программа кодирования : mkvmerge v8.6.1 ('Flying') 64bit
Библиотека кодирования : libebml v1.3.3 + libmatroska v1.4.4

Видео
Идентификатор : 1
Формат : AVC
Формат/Информация : Advanced Video Codec
Профиль формата : High@L4.1
Параметр CABAC формата : Да
Параметр ReFrames формата : 13 кадров
Идентификатор кодека : V_MPEG4/ISO/AVC
Продолжительность : 1 ч. 46 м.
Битрейт : 2022 Кбит/сек
Ширина : 1152 пикселя
Высота : 482 пикселя
Соотношение сторон : 2,40:1
Режим частоты кадров : Постоянный
Частота кадров : 23,976 (24000/1001) кадра/сек
Цветовое пространство : YUV
Субдискретизация насыщенности : 4:2:0
Битовая глубина : 8 бит
Тип развёртки : Прогрессивная
Бит/(Пиксели*Кадры) : 0.152
Размер потока : 1,50 Гбайт (69%)
Заголовок : My Cousin Rachel (2017) (Rip by stalkerok)
Библиотека кодирования : x264 core 150 r2833kMod df79067
Настройки программы : cabac=1 / ref=13 / deblock=1:-3:-2 / analyse=0x3:0x133 / me=umh / subme=11 / psy=1 / fade_compensate=0.00 / psy_rd=1.00:0.00 / mixed_ref=1 / me_range=32 / chroma_me=1 / trellis=2 / 8x8dct=1 / cqm=0 / deadzone=21,11 / fast_pskip=0 / chroma_qp_offset=-2 / threads=12 / lookahead_threads=3 / sliced_threads=0 / nr=0 / decimate=1 / interlaced=0 / bluray_compat=0 / constrained_intra=0 / bframes=13 / b_pyramid=2 / b_adapt=2 / b_bias=0 / direct=3 / weightb=1 / open_gop=0 / weightp=2 / keyint=240 / keyint_min=23 / scenecut=40 / intra_refresh=0 / rc_lookahead=60 / rc=crf / mbtree=0 / crf=18.1000 / qcomp=0.65 / qpmin=0 / qpmax=69 / qpstep=4 / vbv_maxrate=50000 / vbv_bufsize=62500 / crf_max=0.0 / nal_hrd=none / filler=0 / ip_ratio=1.40 / pb_ratio=1.27 / aq=3:0.80 / zones=145883,152698,q=32
Default : Да
Forced : Нет

Аудио #1
Идентификатор : 2
Формат : AC-3
Формат/Информация : Audio Coding 3
Расширение режима : CM (complete main)
Параметр Endianness формата : Big
Идентификатор кодека : A_AC3
Продолжительность : 1 ч. 46 м.
Вид битрейта : Постоянный
Битрейт : 448 Кбит/сек
Каналы : 6 каналов
Расположение каналов : Front: L C R, Side: L R, LFE
Частота : 48,0 КГц
Частота кадров : 31,250 кадров/сек (1536 spf)
Метод сжатия : С потерями
Размер потока : 340 Мбайт (15%)
Язык : Russian
Default : Да
Forced : Нет

Аудио #2
Идентификатор : 3
Формат : AC-3
Формат/Информация : Audio Coding 3
Расширение режима : CM (complete main)
Параметр Endianness формата : Big
Идентификатор кодека : A_AC3
Продолжительность : 1 ч. 46 м.
Вид битрейта : Постоянный
Битрейт : 448 Кбит/сек
Каналы : 6 каналов
Расположение каналов : Front: L C R, Side: L R, LFE
Частота : 48,0 КГц
Частота кадров : 31,250 кадров/сек (1536 spf)
Метод сжатия : С потерями
Размер потока : 340 Мбайт (15%)
Язык : English
Default : Нет
Forced : Нет

Текст #1
Идентификатор : 4
Формат : UTF-8
Идентификатор кодека : S_TEXT/UTF8
Идентификатор кодека/Информация : UTF-8 Plain Text
Продолжительность : 1 ч. 45 м.
Битрейт : 59 бит/сек
Count of elements : 1096
Размер потока : 45,9 Кбайт (0%)
Язык : Russian
Default : Нет
Forced : Нет

Текст #2
Идентификатор : 5
Формат : UTF-8
Идентификатор кодека : S_TEXT/UTF8
Идентификатор кодека/Информация : UTF-8 Plain Text
Продолжительность : 1 ч. 40 м.
Битрейт : 47 бит/сек
Count of elements : 1235
Размер потока : 34,8 Кбайт (0%)
Язык : English
Default : Нет
Forced : Нет

Текст #3
Идентификатор : 6
Формат : UTF-8
Идентификатор кодека : S_TEXT/UTF8
Идентификатор кодека/Информация : UTF-8 Plain Text
Продолжительность : 1 ч. 41 м.
Битрейт : 54 бит/сек
Count of elements : 1423
Размер потока : 40,5 Кбайт (0%)
Заголовок : SDH
Язык : English
Default : Нет
Forced : Нет

Текст #4
Идентификатор : 7
Формат : UTF-8
Идентификатор кодека : S_TEXT/UTF8
Идентификатор кодека/Информация : UTF-8 Plain Text
Продолжительность : 1 ч. 41 м.
Битрейт : 75 бит/сек
Count of elements : 1413
Размер потока : 56,2 Кбайт (0%)
Заголовок : SDH Colored
Язык : English
Default : Нет
Forced : Нет

Меню
00:00:00.000 : en:Chapter 1
00:02:58.678 : en:Chapter 2
00:07:00.378 : en:Chapter 3
00:10:28.586 : en:Chapter 4
00:15:20.419 : en:Chapter 5
00:19:11.692 : en:Chapter 6
00:23:50.971 : en:Chapter 7
00:31:10.034 : en:Chapter 8
00:33:23.167 : en:Chapter 9
00:38:23.801 : en:Chapter 10
00:41:37.578 : en:Chapter 11
00:45:18.424 : en:Chapter 12
00:52:34.151 : en:Chapter 13
00:56:19.793 : en:Chapter 14
00:59:30.275 : en:Chapter 15
01:03:29.138 : en:Chapter 16
01:10:56.335 : en:Chapter 17
01:17:54.961 : en:Chapter 18
01:21:38.518 : en:Chapter 19
01:26:31.686 : en:Chapter 20
01:28:48.156 : en:Chapter 21
01:33:51.292 : en:Chapter 22
01:39:14.114 : en:Chapter 23
01:41:29.416 : en:Chapter 24
скриншот   скриншот   скриншот   скриншот   скриншот   скриншот  
pb.wtf



Скачать Моя кузина Рэйчел через торрент http://i6.imageban.ru/out/2017/09/18/2ff75c0c358795c5946784cc1680714d.png Скачать фильм Моя кузина Рэйчел через торрент бесплантно в хорошем качестве Описание:Филип очень привязан к своему приемному отцу Эмброузу. Однако во время поездки по Италии Эмброуз знакомится с Рэйчел, своей ... 9.8 10 4
Info! Золотая раздача, скачанное не засчитывается.
Торрент: Зарегистрирован [2017-10-03 16:24] · скачан: 107 раз
Статус: √ проверено
Размер: 2.17 GB
Как cкачать? Как скачать Моя кузина Рэйчел через торрент | UTorrent

% Раздел Тема Автор DL S | L
Фильмы [HD 720p, 1080p] (Хороший звук DUB, MVO) [ 3.99 GB ] Моя кузина Рэйчел / My Cousin Rachel [1952 BDRip 720p by msltel] 2 x MVO msltel Скачать
1 | 0
Фильмы [HD 720p, 1080p] (Хороший звук DUB, MVO) [ 9.86 GB ] Моя кузина Рэйчел / My Cousin Rachel [1952 BDRip 1080p by msltel] 2 x MVO msltel Скачать
1 | 0
Фильмы 2017 [DVDrip, WEB-DLRip, HDrip] (DUB, MVO) [ 746 MB ] Моя кузина Рэйчел / My Cousin Rachel [2017 BDRip-AVC] MVO [] sokol_ok Скачать
2 | 0
Фильмы 2017 [DVDrip, WEB-DLRip, HDrip] (DUB, MVO) [ 1.47 GB ] Моя кузина Рэйчел / My Cousin Rachel [2017 BDRip-AVC] MVO [] sokol_ok Скачать
2 | 0
Фильмы (Blu-ray, BD-Remux, HDDVD) [ 24.17 GB ] Моя кузина Рэйчел / My Cousin Rachel [2017 BD Remux многоголосый ] Бумер Скачать
1 | 0
Фильмы (Blu-ray, BD-Remux, HDDVD) [ 38.63 GB ] Моя кузина Рэйчел / My Cousin Rachel [2017 Blu-ray 1080p] MVO [ Blu-ray CEE] bober100 Скачать
1 | 0
Фильмы с украинским озвучиванием [ 1.46 GB ] Моя кузина Рэйчел / My Cousin Rachel [2017 BDRip] [Ukr DUB] [] killermax2013 Скачать
1 | 0

28-11-2019 20:33  

Отключить всю рекламу на сайте

    Дорогой пользователь! Огромная просьба, поблагодарите релизера, оцените раздачу и оставьте свои комментарий, если Вы скачали Моя кузина Рэйчел через торрент бесплатно! Внесите свою лепту в развитие PiratBit!
    Комментировать посты могут только пользователи прошедшие не сложную регистрацию
    Показать сообщения:    

    Моя кузина Рэйчел через торрент
    Скачать бесплатно Моя кузина Рэйчел
    Моя кузина Рэйчел скачать торрент
    Моя кузина Рэйчел смотреть онлайн
    Cкачать фильм Моя кузина Рэйчел бесплатно
    Моя кузина Рэйчел скачать торрент в хорошем качестве
    Моя кузина Рэйчел смотреть онлайн бесплатно в хорошем качестве


    Вы не можете начинать темы
    Вы не можете отвечать на сообщения
    Вы не можете редактировать свои сообщения
    Вы не можете удалять свои сообщения
    Вы не можете голосовать в опросах
    Вы не можете прикреплять файлы к сообщениям
    Вы можете скачивать файлы