Ссылка на приватное зеркало всего за 1$. Внимание количество ограничено!!!

iTunes

iTunes

iTunes

1

iTunes

iTunes

iTunes

iTunes

iTunes

30
pack

$ от Little Big

ВАЖНО

!!Акция!!

Alien_RageХит недели

RePack

Resident Evil 21

ИГРА 18+

pack

RePack

jed

!!Акция!!

Alien_Rage

RePack

fifa19

RePack

Assassins Creed: Odyssey

RePack

NEED FOR SPEED™ PAYBACK

4 сезон

9 сезон

Бесстыжие 9 сезон

Все сериалы

все сериалы на PB.wtf

RePack

FAR CRY 5
  

Мистер Штайн идёт в онлайн / Un profil pour deux (Стефан Робели) [2017, комедия, WEB-DL 1080p] MVO [Лицензия / iTunes] pb.wtf

Мистер Штайн идёт в онлайн через торрент pb.wtf

Раздают: 1 [ 0 KB/s ]
Размер: 3.79 GB | Добавлен: 2 года 9 мес. назад | Торрент скачан:386 раз
Скачать  

03-10-2017 21:34 Мистер Штайн идёт в онлайн Скачать торрент  

Мистер Штайн идёт в онлайн / Un profil pour deux
««История Сирано де Бержерака в эпоху Google»»

Год выпуска: 2017
Страна: Франция, Германия, Бельгия
Жанр: комедия
Продолжительность: 01:36:25
Перевод: Профессиональный многоголосый [Лицензия / iTunes]
Режиссер: Стефан Робели
В ролях:

Пьер Ришар (Pierre), Янис Леспере (Alex), Фанни Валетт (Flora), Стефани де Крэенкур (Juliette), Стефан Биссо (Sylvie), Маша Мериль (Marie), Гюстав Керверн (Bernard), Пьер Кивитт (David), Анна Бедерке (Madeleine), Филипп Шэйн (Frédéric Selinger, le producteur), Артур Дефэ (Simon), Laurence Weitzig (Dauphine)
Описание:
75-летний вдовец ведёт уединённый образ жизни. Родственники дарят ему компьютер в надежде оживить будни старика. Вскоре он заводит онлайн знакомство, правда, несколько приукрасив данные своего профайла. Элегантной беседой, несвойственной современным людям, он сильно заинтересовывает молодую красивую женщину. Как избежать разоблачения при личной встрече?
Рейтинг:

Качество: WEB-DL 1080p
Формат: MKV
Видео: AVC, 1920x1038 (1.85:1), 5135 kbps, 25 fps, 0,103 bpp
Аудио: русский / AC3 / 5.1 / 48 kHz / 384 kbps / |MVO|
Навигация по главам: есть
General
Unique ID : 216468933752310883133767886518337461834 (0xA2DA6670836148A9B95DF6BAE024DE4A)
Complete name : E:\Torrent\film\MisTer.PerDun.OnLane.2O17.P.WEB-DL.1O8Oр.mkv
Format : Matroska
Format version : Version 2
File size : 3.79 GiB
Duration : 1 h 36 min
Overall bit rate : 5 632 kb/s
Encoded date : UTC 2017-10-03 18:07:38
Writing application : mkvmerge v8.3.0 ('Over the Horizon') 64bit
Writing library : libebml v1.3.1 + libmatroska v1.4.2

Video
ID : 1
Format : AVC
Format/Info : Advanced Video Codec
Format profile : High@L4
Format settings, CABAC : Yes
Format settings, ReFrames : 4 frames
Codec ID : V_MPEG4/ISO/AVC
Duration : 1 h 36 min
Bit rate : 5 136 kb/s
Width : 1 920 pixels
Height : 1 038 pixels
Display aspect ratio : 1.85:1
Frame rate mode : Constant
Frame rate : 25.000 FPS
Color space : YUV
Chroma subsampling : 4:2:0
Bit depth : 8 bits
Scan type : Progressive
Bits/(Pixel*Frame) : 0.103
Stream size : 3.46 GiB (91%)
Language : English
Default : Yes
Forced : No
Color range : Limited
Color primaries : BT.709
Transfer characteristics : BT.709
Matrix coefficients : BT.709

Audio
ID : 2
Format : AC-3
Format/Info : Audio Coding 3
Mode extension : CM (complete main)
Format settings, Endianness : Big
Codec ID : A_AC3
Duration : 1 h 36 min
Bit rate mode : Constant
Bit rate : 384 kb/s
Channel(s) : 6 channels
Channel positions : Front: L C R, Side: L R, LFE
Sampling rate : 48.0 kHz
Frame rate : 31.250 FPS (1536 spf)
Compression mode : Lossy
Stream size : 265 MiB (7%)
Language : Russian
Default : Yes
Forced : No

Menu
00:00:00.000 : en:Глава 1
00:05:54.480 : en:Глава 2
00:13:05.560 : en:Глава 3
00:17:59.920 : en:Глава 4
00:23:49.800 : en:Глава 5
00:29:58.760 : en:Глава 6
00:35:49.120 : en:Глава 7
00:44:27.760 : en:Глава 8
00:50:27.040 : en:Глава 9
00:56:14.920 : en:Глава 10
01:00:26.280 : en:Глава 11
01:06:12.120 : en:Глава 12
01:11:28.800 : en:Глава 13
01:17:04.480 : en:Глава 14
01:22:20.160 : en:Глава 15
01:28:03.760 : en:Глава 16
pb.wtf



Скачать Мистер Штайн идёт в онлайн через торрент http://i5.imageban.ru/out/2017/10/04/5607a176b7ca1b48f3def218e57b17a9.jpg Скачать фильм Мистер Штайн идёт в онлайн через торрент бесплантно в хорошем качестве Описание: 75-летний вдовец ведёт уединённый образ жизни. Родственники дарят ему компьютер в надежде оживить будни старика. Вскоре он ... 8.5 10 6
Торрент: Зарегистрирован [2017-10-03 21:34] · скачан: 386 раз
Статус: √ проверено
Размер: 3.79 GB
Как cкачать? Как скачать Мистер Штайн идёт в онлайн через торрент | qTorrent

% Раздел Тема Автор DL S | L
Фильмы 2017 [DVDrip, WEB-DLRip, HDrip] (DUB, MVO) [ 1.46 GB ] Мистер Штайн идёт в онлайн / Un profil pour deux [2017 WEB-DLRip] MVO bober100 Скачать
1 | 0
T Релизы по Парсеру [Игры, Сериалы и Фильмы и другое...] [ 1.46 GB ] Мистер Штайн идёт в онлайн / Un profil pour deux [2017 WEB-DLRip-AVC] MVO bober100 Скачать
1 | 0

28-11-2019 20:33  

Отключить всю рекламу на сайте

04-10-2017 16:08 Мистер Штайн идёт в онлайн Скачать торрент  

Пьер Ришар. Только в хороших фильмахpb.wtf



    Дорогой пользователь! Огромная просьба, поблагодарите релизера, оцените раздачу и оставьте свои комментарий, если Вы скачали Мистер Штайн идёт в онлайн через торрент бесплатно! Внесите свою лепту в развитие PiratBit!
    Комментировать посты могут только пользователи прошедшие не сложную регистрацию
    Показать сообщения:    

    Мистер Штайн идёт в онлайн через торрент
    Скачать бесплатно Мистер Штайн идёт в онлайн
    Мистер Штайн идёт в онлайн скачать торрент
    Мистер Штайн идёт в онлайн смотреть онлайн
    Cкачать фильм Мистер Штайн идёт в онлайн бесплатно
    Мистер Штайн идёт в онлайн скачать торрент в хорошем качестве
    Мистер Штайн идёт в онлайн смотреть онлайн бесплатно в хорошем качестве


    Вы не можете начинать темы
    Вы не можете отвечать на сообщения
    Вы не можете редактировать свои сообщения
    Вы не можете удалять свои сообщения
    Вы не можете голосовать в опросах
    Вы не можете прикреплять файлы к сообщениям
    Вы можете скачивать файлы