Ссылка на приватное зеркало нашего сайта всего за 1$. Внимание количество ограничено!!!

2 сезон

iTunes

1 сезон

1

2 сезон

2 сезон

iTunes

1 сезон

RePack

30

Новинка

ВАЖНО

ИГРА 18+

pack

RePack

MK11
pack

Забери бонус

RePack

jed

!!Акция!!

Alien_Rage

RePack

fifa19

RePack

Assassins Creed: Odyssey

RePack

NEED FOR SPEED™ PAYBACK

4 сезон

9 сезон

Бесстыжие 9 сезон

Все сериалы

все сериалы на PB.wtf

RePack

FAR CRY 5
  

Последний кандидат / Designated Survivor / Сезон: 2 / Серии 1-22 из 22 (Пол А. Эдвардс / Paul A. Edwards, Пол МакГиган / Paul McGuigan) [2017 , США, триллер, драма, WEBRip 720p] MVO [BaibaKo] pb.wtf

Последний кандидат через торрент pb.wtf

Размер: 28.06 GB | Добавлен: 2 года 6 мес. назад | Торрент скачан:2 раза
Скачать  

04-10-2017 00:07 Последний кандидат Скачать торрент  

Последний кандидат / Designated Survivor


  • Год выпуска: 2017
  • Страна: США
  • Жанр: триллер, драма
  • Продолжительность: 00:41:58 (Серия)
  • Перевод: Профессиональный многоголосый [BaibaKo]
  • Режиссер: Пол А. Эдвардс / Paul A. Edwards, Пол МакГиган / Paul McGuigan, Серджо Мимика-Геззан / Sergio Mimica-Gezzan
  • В ролях:

    Наташа МакЭлхоун (Alex Kirkman), Адан Канто (Aaron Shore), Италиа Риччи (Emily Rhodes), ЛаМоника Гаррет (Mike Ritter), Кэл Пенн (Seth Wright), Мэгги Кью (Hannah Wells), Тэннер Бьюкэнэн (Leo Kirkman), Кифер Сазерленд (Tom Kirkman), МакКенна Грейс (Penny Kirkman), Майкл Мюррэй Скрэтч (Senator Scott Wheeler), Кевин МакНэлли (Harris Cochran), Майкл Гэстон (Governor John Royce)


  • В результате теракта погибает все правительство США во главе с Президентом. В результате Президентом назначают последнего в списке, предусмотренном Конституцией, Министра по жилищным и градостроительным вопросам, который не обладает должным опытом, и даже не мечтал оказаться в Белом доме, но которому предстоит раскрыть заговор, найти и уничтожить террористов, остановить панику среди гражданского населения, восстановить страну и продолжать управлять ей.
  • Рейтинг:

    rating
  • Качество: WEBRip 720p
  • Формат: :MKV
  • Видео кодек: AVC
  • Аудио кодек: AC3
  • Видео: 2428 Кбит/сек, 1280*720 (16:9), в 23,976 (24000/1001) кадра/сек, AVC
  • Аудио №1: русский 640 Кбит/сек, 48,0 КГц, 16 бит, 6 каналов, AC-3 |[BaibaKo]|
  • Аудио №2: английский 640 Кбит/сек, 48,0 КГц, 16 бит, 6 каналов, AC-3
  • Релиз от: GEKADOL

    Внимание! Раздача ведётся путём добавления новых серий; при каждом добавлении создаётся новый торрент. Чтобы начать докачку новой серии, пользователям необходимо сделать следующее:
    (1) остановить скачивание,
    (2) удалить старый торрент у себя из клиента (старые серии удалять не надо),
    (3) скачать новый торрент и запустить его у себя в клиенте вместо старого, при этом указать клиенту путь в старую папку куда и должно происходить скачивание новых серий.
    Ваш клиент при этом должен произвести хеширование (проверку) старой папки (если не производит сам - помогите ему сделать это), и будет докачивать только те серии которых у вас ещё нет. Старые серии при этом не удаляются, а продолжают раздаваться!
    Eсли вы уже удалили старые серии, то предотвратить повторную закачку старых серий можно, отжав галочку в соответствующих местах при запуске нового торрента. По возможности, желательно не удалять старые серии как можно дольше чтобы релизёр не столько продолжал раздавать старые серии, а смог сконцентрироваться на новых.

    Общее
    Уникальный идентификатор : 228194239847865426627948108487296875458 (0xABAC9CA9CD3DD722BDC87EE32308FBC2)
    Полное имя : F:\Последний кандидат (Designated Survivor 2)\Designated.Survivor.s02e01.HD720p.WEBRip.Rus.Eng.BaibaKo.tv.mkv
    Формат : Matroska
    Версия формата : Version 4 / Version 2
    Размер файла : 1,07 Гбайт
    Продолжительность : 41 м. 7 с.
    Режим общего битрейта : Переменный
    Общий поток : 3710 Кбит/сек
    Дата кодирования : UTC 2017-10-03 23:41:53
    Программа кодирования : mkvmerge v14.0.0 ('Flow') 64bit
    Библиотека кодирования : libebml v1.3.4 + libmatroska v1.4.5

    Видео
    Идентификатор : 1
    Формат : AVC
    Формат/Информация : Advanced Video Codec
    Профиль формата : High@L3.1
    Параметр CABAC формата : Да
    Параметр RefFrames формата : 5 кадров
    Идентификатор кодека : V_MPEG4/ISO/AVC
    Продолжительность : 41 м. 7 с.
    Вид битрейта : Переменный
    Битрейт : 2428 Кбит/сек
    Максимальный битрейт : 4500 Кбит/сек
    Ширина : 1280 пикселей
    Высота : 720 пикселей
    Соотношение сторон : 16:9
    Режим частоты кадров : Постоянный
    Частота кадров : 23,976 (24000/1001) кадра/сек
    Цветовое пространство : YUV
    Субдискретизация насыщенности : 4:2:0
    Битовая глубина : 8 бит
    Тип развёртки : Прогрессивная
    Бит/(Пиксели*Кадры) : 0.110
    Размер потока : 714 Мбайт (65%)
    Default : Нет
    Forced : Нет
    Цветовой диапазон : Limited
    Основные цвета : BT.709
    Характеристики трансфера : BT.709
    Коэффициенты матрицы : BT.709

    Аудио #1
    Идентификатор : 2
    Формат : AC-3
    Формат/Информация : Audio Coding 3
    Параметр Endianness формата : Big
    Идентификатор кодека : A_AC3
    Продолжительность : 41 м. 7 с.
    Вид битрейта : Постоянный
    Битрейт : 640 Кбит/сек
    Каналы : 6 каналов
    Расположение каналов : Front: L C R, Side: L R, LFE
    Частота : 48,0 КГц
    Частота кадров : 31,250 кадров/сек (1536 SPF)
    Битовая глубина : 16 бит
    Метод сжатия : С потерями
    Задержка видео : 12 мс.
    Размер потока : 188 Мбайт (17%)
    Язык : Russian
    ServiceKind/String : Complete Main
    Default : Да
    Forced : Нет

    Аудио #2
    Идентификатор : 3
    Формат : AC-3
    Формат/Информация : Audio Coding 3
    Параметр Endianness формата : Big
    Идентификатор кодека : A_AC3
    Продолжительность : 41 м. 7 с.
    Вид битрейта : Постоянный
    Битрейт : 640 Кбит/сек
    Каналы : 6 каналов
    Расположение каналов : Front: L C R, Side: L R, LFE
    Частота : 48,0 КГц
    Частота кадров : 31,250 кадров/сек (1536 SPF)
    Битовая глубина : 16 бит
    Метод сжатия : С потерями
    Размер потока : 188 Мбайт (17%)
    Язык : English
    ServiceKind/String : Complete Main
    Default : Нет
    Forced : Нет



    Скриншоты:
    скриншот   скриншот   скриншот   скриншот   скриншот   скриншот   скриншот  
    скриншот  

    Раздача ведётся путём добавления новых серий. Добавлена 22 серия (19.05.2018).Просьба перекачать торрент файл.

    pb.wtf



  • Скачать Последний кандидат через торрент http://pic1.kartinco.top/images/11/44sy6.jpg Скачать фильм Последний кандидат через торрент бесплантно в хорошем качестве qw.png В результате теракта погибает все правительство США во главе с Президентом. В результате Президентом назначают последнего в ... 7.4 10 7
    Info! Золотая раздача, скачанное не засчитывается.
    Торрент: Зарегистрирован [2018-05-19 00:11] · скачан: 2 раз
    Статус: √ проверено
    Размер: 28.06 GB
    Как cкачать? Как скачать Последний кандидат через торрент | qTorrent



    Последний раз редактировалось: GEKADOL (2018-05-15 00:30), всего редактировалось 21 раз(а)

    28-11-2019 20:33  

    Отключить всю рекламу на сайте

      Дорогой пользователь! Огромная просьба, поблагодарите релизера, оцените раздачу и оставьте свои комментарий, если Вы скачали Последний кандидат через торрент бесплатно! Внесите свою лепту в развитие PiratBit!
      Комментировать посты могут только пользователи прошедшие не сложную регистрацию
      Показать сообщения:    

      Последний кандидат через торрент
      Скачать бесплатно Последний кандидат
      Последний кандидат скачать торрент
      Последний кандидат смотреть онлайн
      Cкачать фильм Последний кандидат бесплатно
      Последний кандидат скачать торрент в хорошем качестве
      Последний кандидат смотреть онлайн бесплатно в хорошем качестве


      Вы не можете начинать темы
      Вы не можете отвечать на сообщения
      Вы не можете редактировать свои сообщения
      Вы не можете удалять свои сообщения
      Вы не можете голосовать в опросах
      Вы не можете прикреплять файлы к сообщениям
      Вы можете скачивать файлы