Ссылка на приватное зеркало нашего сайта всего за 1$. Внимание количество ограничено!!!

2 сезон

iTunes

1 сезон

1

2 сезон

2 сезон

iTunes

1 сезон

RePack

30

Ultimate

ВАЖНО

ИГРА 18+

pack

RePack

MK11
pack

Забери бонус

RePack

jed

!!Акция!!

Alien_Rage

RePack

fifa19

RePack

Assassins Creed: Odyssey

RePack

NEED FOR SPEED™ PAYBACK

4 сезон

9 сезон

Бесстыжие 9 сезон

Все сериалы

все сериалы на PB.wtf

RePack

FAR CRY 5
  

Люцифер / Lucifer / Сезон: 3 / Серии: 1-26 из 26 (Лен Уайзман) [2017, Фэнтези, драма, ужасы, WEB-DLRip] MVO [NewStudio] pb.wtf

Люцифер через торрент pb.wtf

Размер: 13.29 GB | Добавлен: 2 года 5 мес. назад | Торрент скачан:246 раз
Скачать  

04-10-2017 00:33 Люцифер Скачать торрент  





Информация о фильме:

✦ Название: Люцифер
✦ Оригинальное название: Lucifer
✦ Год выхода: 2017
✦ Жанр: Фэнтези, драма, ужасы
✦ Страна: США
✦ Продолжительность: ~ 00:45:00
✦ Перевод: профессиональный (многоголосый, закадровый)
|
✦ Субтитры: | отсутствуют |
✘ полностью отсутствует реклама

✦ Режиссер: Лен Уайзман

В ролях:

Рэйчел Харрис, Лорен Джерман, Кайла Юэлл, Кевин Алехандро, Лесли-Энн Брандт, Д.Б. Вудсайд, Том Эллис, Мэтт Корбой, Скарлет Эстевез


Описание:
Заскучавший и несчастный повелитель преисподней, Люцифер Морнингстар оставил свой престол и отправился в современный Лос-Анджелес, где основал ночной клуб «Lux». Очаровательный, харизматичный и дьявольски привлекательный Люцифер наслаждается своим отдыхом — вином, женщинами и музыкой — пока красивая поп-звезда не оказывается убитой на пороге его клуба…

rating



Информация о файле:


✦ Качество: WEB-DLRip | чистый видеоряд |
✦ Формат: AVI
✦ Видео кодек: XviD
✦ Аудио кодек: MP3

✦ Видео: ~ 1400 kbps | 720x400 (16:9) | 23,976 fps
✦ Аудио: Rus: MP3 | 48.0 KHz | 2 ch | 128 kbps |
✦ Аудио: Eng: MP3 | 48.0 KHz | 2 ch | 128 kbps |
скриншот   скриншот   скриншот   скриншот  

Общее
Полное имя : D:\Lucifer (Season 03) NewStudio\Lucifer.S03E01.XviD.NewStudio.(qqss44).avi
Формат : AVI
Формат/Информация : Audio Video Interleave
Размер файла : 525 Мбайт
Продолжительность : 43 м. 59 с.
Общий поток : 1670 Кбит/сек
Программа кодирования : VirtualDubMod 1.5.10.3 | www.virtualdub-fr.org || (build 2550/release)
Библиотека кодирования : VirtualDubMod build 2550/release

Видео
Идентификатор : 0
Формат : MPEG-4 Visual
Профиль формата : Advanced Simple@L5
Параметр BVOP формата : 2
Параметр QPel формата : Нет
Параметр GMC формата : Без точки перехода
Параметр матрицы формата : Выборочная
Идентификатор кодека : XVID
Идентификатор кодека/Подсказка : XviD
Продолжительность : 43 м. 59 с.
Битрейт : 1400 Кбит/сек
Ширина : 720 пикселей
Высота : 400 пикселей
Соотношение сторон : 16:9
Частота кадров : 23,976 (23976/1000) кадра/сек
Цветовое пространство : YUV
Субдискретизация насыщенности : 4:2:0
Битовая глубина : 8 бит
Тип развёртки : Прогрессивная
Метод сжатия : С потерями
Бит/(Пиксели*Кадры) : 0.203
Размер потока : 440 Мбайт (84%)
Библиотека кодирования : XviD 73

Аудио #1
Идентификатор : 1
Формат : MPEG Audio
Версия формата : Version 1
Профиль формата : Layer 3
Режим : Joint stereo
Расширение режима : MS Stereo
Идентификатор кодека : 55
Идентификатор кодека/Подсказка : MP3
Продолжительность : 43 м. 59 с.
Вид битрейта : Постоянный
Битрейт : 128 Кбит/сек
Каналы : 2 канала
Частота : 48,0 КГц
Метод сжатия : С потерями
Размер потока : 40,3 Мбайт (8%)
Выравнивание : Соединение по промежуткам
Продолжительность промежутка : 42 мс. (1,00 видеокадр)
Время предзагрузки промежутка : 504 мс.

Аудио #2
Идентификатор : 2
Формат : MPEG Audio
Версия формата : Version 1
Профиль формата : Layer 3
Режим : Joint stereo
Расширение режима : MS Stereo
Идентификатор кодека : 55
Идентификатор кодека/Подсказка : MP3
Продолжительность : 43 м. 59 с.
Вид битрейта : Постоянный
Битрейт : 128 Кбит/сек
Каналы : 2 канала
Частота : 48,0 КГц
Метод сжатия : С потерями
Размер потока : 40,3 Мбайт (8%)
Выравнивание : Соединение по промежуткам
Продолжительность промежутка : 42 мс. (1,00 видеокадр)
Время предзагрузки промежутка : 504 мс.

Когда раздача ведётся путём добавления новых серий, при каждом добавлении создётся новый торрент. Чтобы начать докачку новой серии, пользователям необходимо сделать следующее:
(1) остановить скачивание,
(2) удалить старый торрент у себя из клиента (старые серии удалять не надо),
(3) скачать новый торрент и запустить его у себя в клиенте вместо старого, при этом указать клиенту путь в старую папку, куда и должно происходить скачивание новых серий.
Ваш клиент при этом должен произвести хеширование (проверку) старой папки (если не производит сам - помогите ему сделать это), и будет докачивать только те серии, которых у вас ещё нет. Старые серии при этом не удаляются, а продолжают раздаваться!
Eсли вы уже удалили старые серии, то предотвратить повторную закачку старых серий можно, отжав галочку в соответсвующих местах при запуске нового торрента. По возможности, желательно не удалять старые серии как можно дольше, чтобы релизёр не столько продолжал раздавать старые серии, а смог сконцентрироваться на новых.
pb.wtf



Скачать Люцифер через торрент http://i75.fastpic.ru/big/2016/0317/da/875c60f73400beeaa41230bfe33e0cda.gif Скачать фильм Люцифер через торрент бесплантно в хорошем качестве Описание:Заскучавший и несчастный повелитель преисподней, Люцифер Морнингстар оставил свой престол и отправился в современный Лос-Анджелес, ... 9.3 10 12
Info! Серебряная раздача, засчитывается только 50% скачанного.
Торрент: Зарегистрирован [2018-06-03 14:38] · скачан: 246 раз
Статус: √ проверено
Размер: 13.29 GB
Как cкачать? Как скачать Люцифер через торрент | qTorrent

% Раздел Тема Автор DL S | L
Зарубежные сериалы [ 52.22 GB ] Люцифер / Lucifer/ Сезон: 3 / Серии 1-26 из 26 [2017 WEBRip 720p] [MVO] killermax2013 Скачать
1 | 0
Зарубежные сериалы [ 47.76 GB ] Люцифер / Lucifer / Сезон: 3 / Серии: 1-26 из 26 [2017 WEB-DL 720p] MVO [Jaskier] bober100 Скачать
1 | 0
Зарубежные сериалы [ 13.97 GB ] Люцифер / Lucifer / Сезон: 3 / Серии: 1-26 из 26 [2017 WEB-DLRip] MVO [Jaskier] bober100 Скачать
1 | 0
Зарубежные сериалы [ 12.28 GB ] Люцифер / Lucifer/ Сезон: 3 / Серии 1-26 из 26 [2017 WEBRip] [MVO] killermax2013 Скачать
1 | 0
Зарубежные сериалы [ 13.97 GB ] Люцифер / Lucifer / Сезон: 3 / Серии: 1-26 из 26 [2017 WEB-DLRip] MVO [LostFilm] bober100 Скачать
2 | 2
Зарубежные сериалы [ 94.41 GB ] Люцифер / Lucifer / Сезон: 3 / Серии: 1-26 из 26 [2017 WEB-DL 1080p] MVO [Jaskier] bober100 Скачать
1 | 0
Зарубежные сериалы [ 38.6 GB ] Люцифер / Lucifer / Сезон: 3 / Серии 1-26 из 26 [2017 WEB-DL 720p] MVO [NewStudio] GEKADOL Скачать
1 | 0


Последний раз редактировалось: bober100 (2018-06-03 14:38), всего редактировалось 11 раз(а)

28-11-2019 20:33  

Отключить всю рекламу на сайте

09-02-2018 13:17 Люцифер Скачать торрент  

я уже 14ю посмотрел...pb.wtf



16-05-2018 17:53 Люцифер Скачать торрент  

bober100 писал(а):

+14

Когда 24 серия?pb.wtf



16-05-2018 18:07 Люцифер Скачать торрент  

GluckMan писал(а):

bober100 писал(а):

+14

Когда 24 серия?

Добавил! pb.wtf



17-05-2018 16:00 Люцифер Скачать торрент  

bober100 писал(а):

GluckMan писал(а):

bober100 писал(а):

+14

Когда 24 серия?

Добавил!

pb.wtf



    Дорогой пользователь! Огромная просьба, поблагодарите релизера, оцените раздачу и оставьте свои комментарий, если Вы скачали Люцифер через торрент бесплатно! Внесите свою лепту в развитие PiratBit!
    Комментировать посты могут только пользователи прошедшие не сложную регистрацию
    Показать сообщения:    

    Люцифер через торрент
    Скачать бесплатно Люцифер
    Люцифер скачать торрент
    Люцифер смотреть онлайн
    Cкачать фильм Люцифер бесплатно
    Люцифер скачать торрент в хорошем качестве
    Люцифер смотреть онлайн бесплатно в хорошем качестве


    Вы не можете начинать темы
    Вы не можете отвечать на сообщения
    Вы не можете редактировать свои сообщения
    Вы не можете удалять свои сообщения
    Вы не можете голосовать в опросах
    Вы не можете прикреплять файлы к сообщениям
    Вы можете скачивать файлы