Доктор Стрэндж

Лицензия

Добыча

Дубляж

Уэнсдэй

1 сезон

Тор

Дубляж

В эфире

Дубляж

Там, где раки поют

MVO

Властелин колец

1 сезон

Deluxe

pack

Рекомендуем

30

Пиратка

ВАЖНО

ВАЖНО

Ghostwire

Пиратка

jed

RePack

nioh2

RePack

RDR2

RePack

NEED FOR SPEED™ PAYBACK

RePack

скачать торрент

Кинопоиск HD

Острые козырьки 6 сезон

6 сезон

FAR CRY 6

RePack

скачать торрент

Лицензия

скачать торрент

MVO

1

1 сезон

скачать торрент

1 сезон

скачать торрент

Лицензия

  

Человек-паук: Возвращение домой / Spider-Man: Homecoming (Джон Уоттс) [2017, фантастика, боевик, приключения, BDRip 1080p] Дубляж [iTunes]

Человек-паук: Возвращение домой через торрент pb.wtf

Размер: 10.93 GB | Добавлен: 5 лет 2 мес. назад | Торрент скачан:1336 раз
Смотреть онлайн | Скачать   

04-10-2017 04:46 Человек-паук: Возвращение домой Скачать торрент  

Человек-паук: Возвращение домой /
Spider-Man: Homecoming
Год выпуска: 2017
Страна: США
Жанр: фантастика, боевик, приключения
Продолжительность: 02:13:28
Перевод: Дублированный |[iTunes]
Субтитры: Русские (forced, full), английские

Режиссер: Джон Уоттс

rating

В ролях:

Том Холланд, Роберт Дауни мл., Майкл Китон, Мариса Томей, Джон Фавро, Джейкоб Баталон, Зендея Лора Хэрриер, Тони Револори, Дональд Гловер

Описание:

После исторической встречи с командой Мстителей Питер Паркер возвращается домой, стараясь зажить обычной жизнью под опекой своей тёти Мэй. Но теперь за Питером приглядывает ещё кое-что… Тони Старк видел Человека-Паука в деле и должен стать его наставником. Когда новый злодей Стервятник угрожает уничтожить всё, что дорого Питеру, приходит время доказать всем, что такое настоящий супергерой.

Качество: BDRip 1080p
Формат: MKV
Видео кодек: H.264
Аудио кодек: AC3/DTS

Видео: MPEG-4 AVC, 1920x800, 10.0 Mbit/s, 23.976 fps
Аудио#1: 48 kHz, AC3, 5.1, 384 Kbps | Дублированный | iTunes | RUS |
Аудио#2: 48 kHz, DTS, 5.1, 1510 Kbps | Оригинал | ENG |

Релиз от:
скриншот   скриншот   скриншот   скриншот   скриншот  

General
Unique ID : 243474579949995020337646038171651320871 (0xB72B7F989A3FFDBCA77BCD239EC2AC27)
Complete name : F:Spider.Man.Homecoming.2017.BDRip.1080p.ExKinoRay.mkv
Format : Matroska
Format version : Version 4 / Version 2
File size : 10.9 GiB
Duration : 2 h 13 min
Overall bit rate : 11.7 Mb/s
Encoded date : UTC 2017-10-03 19:57:50
Writing application : mkvmerge v16.0.0 ('Protest') 64-bit
Writing library : libebml v1.3.5 + libmatroska v1.4.8

Video
ID : 1
Format : AVC
Format/Info : Advanced Video Codec
Format profile : [email protected]
Format settings : CABAC / 4 Ref Frames
Format settings, CABAC : Yes
Format settings, RefFrames : 4 frames
Codec ID : V_MPEG4/ISO/AVC
Duration : 2 h 13 min
Bit rate : 10 000 kb/s
Width : 1 920 pixels
Height : 800 pixels
Display aspect ratio : 2.40:1
Frame rate mode : Constant
Frame rate : 23.976 (24000/1001) FPS
Color space : YUV
Chroma subsampling : 4:2:0
Bit depth : 8 bits
Scan type : Progressive
Bits/(Pixel*Frame) : 0.272
Stream size : 9.17 GiB (84%)
Writing library : x264 core 149 r2771+45 509cceb 7mod [[email protected] X86_64]
Encoding settings : cabac=1 / ref=4 / deblock=1:-1:-1 / analyse=0x3:0x133 / me=umh / subme=11 / psy=1 / fade_compensate=0.00 / psy_rd=0.95:0.10 / mixed_ref=1 / me_range=48 / chroma_me=1 / trellis=2 / 8x8dct=1 / cqm=0 / deadzone=21,11 / fast_pskip=0 / chroma_qp_offset=-4 / threads=12 / lookahead_threads=2 / sliced_threads=0 / nr=0 / decimate=1 / interlaced=0 / bluray_compat=0 / constrained_intra=0 / fgo=0 / bframes=9 / b_pyramid=2 / b_adapt=2 / b_bias=0 / direct=3 / weightb=1 / open_gop=0 / weightp=2 / keyint=250 / keyint_min=23 / scenecut=40 / intra_refresh=0 / rc_lookahead=30 / rc=2pass / mbtree=0 / bitrate=10000 / ratetol=1.0 / qcomp=0.70 / qpmin=0:0:0 / qpmax=69:69:69 / qpstep=4 / cplxblur=20.0 / qblur=0.5 / vbv_maxrate=35000 / vbv_bufsize=35000 / nal_hrd=none / filler=0 / ip_ratio=1.40 / pb_ratio=1.30 / aq=3:1.00 / aq-sensitivity=10.00 / aq-factor=1.00:1.00:1.00 / aq2=0 / aq3=2:[0.50:0.50]:[0.50:0.50]:[0.50:0.50]:[0.50:0.50] / aq3-sensitivity=10.00 / aq3-factor=[1.00:1.00]:[1.00:1.00]:[1.00:1.00] / aq3-boundary=192:64:24
Language : English
Default : Yes
Forced : No

Audio #1
ID : 2
Format : AC-3
Format/Info : Audio Coding 3
Format settings, Endianness : Big
Codec ID : A_AC3
Duration : 2 h 13 min
Bit rate mode : Constant
Bit rate : 384 kb/s
Channel(s) : 6 channels
Channel positions : Front: L C R, Side: L R, LFE
Sampling rate : 48.0 kHz
Frame rate : 31.250 FPS (1536 SPF)
Bit depth : 16 bits
Compression mode : Lossy
Stream size : 367 MiB (3%)
Title : iTunes
Language : Russian
Service kind : Complete Main
Default : Yes
Forced : No

Audio #2
ID : 3
Format : DTS
Format/Info : Digital Theater Systems
Mode : 16
Format settings, Endianness : Big
Codec ID : A_DTS
Duration : 2 h 13 min
Bit rate mode : Constant
Bit rate : 1 509 kb/s
Channel(s) : 6 channels
Channel positions : Front: L C R, Side: L R, LFE
Sampling rate : 48.0 kHz
Frame rate : 93.750 FPS (512 SPF)
Bit depth : 24 bits
Compression mode : Lossy
Stream size : 1.41 GiB (13%)
Title : Original
Language : English
Default : No
Forced : No

Text #1
ID : 4
Format : UTF-8
Codec ID : S_TEXT/UTF8
Codec ID/Info : UTF-8 Plain Text
Duration : 2 h 9 min
Bit rate : 0 b/s
Count of elements : 17
Stream size : 825 Bytes (0%)
Title : Forced [iTunes]
Language : Russian
Default : Yes
Forced : No

Text #2
ID : 5
Format : UTF-8
Codec ID : S_TEXT/UTF8
Codec ID/Info : UTF-8 Plain Text
Duration : 2 h 12 min
Bit rate : 104 b/s
Count of elements : 1825
Stream size : 102 KiB (0%)
Title : Full [iTunes]
Language : Russian
Default : No
Forced : No

Text #3
ID : 6
Format : UTF-8
Codec ID : S_TEXT/UTF8
Codec ID/Info : UTF-8 Plain Text
Duration : 5 s 130 ms
Bit rate : 79 b/s
Count of elements : 2
Stream size : 51.0 Bytes (0%)
Title : Forced [iTunes]
Language : English
Default : No
Forced : No

Text #4
ID : 7
Format : UTF-8
Codec ID : S_TEXT/UTF8
Codec ID/Info : UTF-8 Plain Text
Duration : 2 h 12 min
Bit rate : 64 b/s
Count of elements : 1790
Stream size : 62.3 KiB (0%)
Title : Full [iTunes]
Language : English
Default : No
Forced : No

Menu
00:00:00.000 : en:1
00:05:33.083 : en:2
00:14:23.279 : en:3
00:20:49.999 : en:4
00:26:18.243 : en:5
00:36:26.976 : en:6
00:46:02.926 : en:7
00:54:39.192 : en:8
01:05:09.280 : en:9
01:12:02.276 : en:10
01:20:19.189 : en:11
01:29:40.542 : en:12
01:36:55.894 : en:13
01:44:43.152 : en:14
01:50:30.249 : en:15
01:57:52.566 : en:16




Скачать Человек-паук: Возвращение домой через торрент http://s018.radikal.ru/i510/1710/eb/fc639275ef45.jpg Скачать, смотреть онлайн Человек-паук: Возвращение домой бесплантно в хорошем качестве Описание: После исторической встречи с командой Мстителей Питер Паркер возвращается домой, стараясь зажить обычной жизнью под опекой своей ... 9.7 10 23
Info! Золотая раздача, скачанное не засчитывается.
Торрент: Зарегистрирован [2017-10-04 04:46] · скачан: 1 336 раз
Статус: √ проверено
Размер: 10.93 GB
Как cкачать? Как скачать Человек-паук: Возвращение домой через торрент | UTorrent

% Раздел Тема Автор DL S | L
Ultra HD (UHD: 2K, 4K, 8K) [ 43.9 GB ] Человек-паук: Возвращение домой / Spider-Man: Homecoming | Лицензия | 2160p sheker187 Скачать
1 | 0
Фильмы (HD 720p, 1080p) (48-60 fps) [ 4.08 GB ] Человек-паук: Возвращение домой / Spider-Man: Homecoming | Дубляж | 720p / 60 FPS slaventi-69 Скачать
1 | 1
Ultra HD (UHD: 2K, 4K, 8K) [ 56.23 GB ] Человек-паук: Возвращение домой / Spider-Man: Homecoming | Лицензия | 2160p sheker187 Скачать
1 | 0
Фильмы [HD 720p, 1080p] (Хороший звук DUB, MVO) [ 7.23 GB ] Человек-паук: Возвращение домой / Spider-Man: Homecoming | Лицензия | 1080p, HEVC (10bit Мичман37 Скачать
1 | 0
Ultra HD (UHD: 2K, 4K, 8K) [ 19.51 GB ] Человек-паук: Возвращение домой / Spider-Man: Homecoming | Лицензия | 2160p sheker187 Скачать
1 | 0
Фильмы 2017 [DVDrip, WEB-DLRip, HDrip] (DUB, MVO) [ 2.83 GB ] Человек-паук: Возвращение домой / Spider-Man: Homecoming | Лицензия | BDRip-AVC, Дубляж Лицензия, AVO morfyi Скачать
1 | 0
Фильмы (Blu-ray, BD-Remux, HDDVD) [ 27.97 GB ] Человек-паук: Возвращение домой / Spider-Man: Homecoming | Лицензия | BD Remux 1080p bober100 Скачать
1 | 0



Последний раз редактировалось: bober100 (2017-10-04 16:11), всего редактировалось 1 раз

28-11-2019 20:33  


Отключить вcю реклaмy на сайте, в т.ч. и в плеере онлайн просмотра!

04-10-2017 10:39 Человек-паук: Возвращение домой Скачать торрент  

60 FPS будет ?



04-10-2017 16:02 Человек-паук: Возвращение домой Скачать торрент  

нафиг было нужно менять актера



04-10-2017 16:15 Человек-паук: Возвращение домой Скачать торрент  

Зачем делать 2 одинаковые раздачи?

https://pir.../256869/



05-10-2017 03:48 Человек-паук: Возвращение домой Скачать торрент  

deadmurz писал(а):

Зачем делать 2 одинаковые раздачи?

https://pir.../256869/

Той раздачи уже нет успакойся! она была временная! так всегда делается



17-10-2017 19:44 Человек-паук: Возвращение домой Скачать торрент  

Фильм слабоват



    Дорогой пользователь! Огромная просьба, поблагодарите релизера, оцените раздачу и оставьте свои комментарий, если Вы скачали Человек-паук: Возвращение домой через торрент бесплатно!!
    Комментировать посты могут только пользователи прошедшие не сложную регистрацию
    Показать сообщения:    


    Человек-паук: Возвращение домой через торрент
    Скачать бесплатно Человек-паук: Возвращение домой
    Человек-паук: Возвращение домой скачать торрент
    Человек-паук: Возвращение домой смотреть онлайн
    Cкачать фильм Человек-паук: Возвращение домой бесплатно
    Человек-паук: Возвращение домой скачать торрент в хорошем качестве
    Человек-паук: Возвращение домой смотреть онлайн бесплатно в хорошем качестве
    Вы не можете начинать темы
    Вы не можете отвечать на сообщения
    Вы не можете редактировать свои сообщения
    Вы не можете удалять свои сообщения
    Вы не можете голосовать в опросах
    Вы не можете прикреплять файлы к сообщениям
    Вы можете скачивать файлы
    Человек-паук: Возвращение домой / Spider-Man: Homecoming [2017, фантастика, боевик, приключения, BDRip 1080p] Дубляж [iTunes] смотреть онлайн, скачать торрент picoco.icu