новый адрес пиратбит piratbit
Мега распродажа FORZA HORIZON 4 ULTIMATE+ВСЕ DLC+ОНЛАЙН всего за 499р. 349 руб. (супер цена). Внимание количество ограничено!!!

iTunes

1+1

iTunes

мы

iTunes

1

iTunes

Чернобыль

iTunes

Ральф против интернета

Лицензия

ПШазам

Лицензия

Игра престолов

Лицензия

30
pack

ВАЖНО

!!Акция!!

Alien_RageХит недели

RePack

Resident Evil 21

ИГРА 18+

pack

RePack

Metro:Exodus

!!Акция!!

Alien_Rage

RePack

fifa19

RePack

Assassins Creed: Odyssey

RePack

NEED FOR SPEED™ PAYBACK

3 сезон

9 сезон

Бесстыжие 9 сезон

Все сериалы

все сериалы на PB.wtf

RePack

FAR CRY 5
Ребята, катастрофически не хватает 1900р. для оплаты серверов за Октябрь (всвязи с блокировками трафик упал в 3 раза), 1-2р., выручайте.
  

Пора таежного подснежника (Ярополк Лапшин) [1958, СССР, драма, SATRip от AVP Studio] pb.wtf

Пора таежного подснежника через торрент pb.wtf

Размер: 757 MB | Добавлен: 2 года 1 мес. назад | Торрент скачан:18 раз
Скачать  

04-10-2017 07:27 Пора таежного подснежника Скачать торрент  

Пора таежного подснежника
Страна: СССР
Производство: Свердловская к/ст

Жанр: драма
Год выпуска: 1958
Продолжительность: 01:25:17

Перевод: Не требуется
Cубтитры: нет
Оригинальная аудиодорожка: русский

Режиссер: Ярополк Лапшин

В ролях:
Буда Вампилов, Мария Степанова, Найдан Гендунова, Валентина Дагбаева, Илларион Марактаев, Владимир Манкетов, Петр Николаев, Владимир Халматов, Юрий Леонидов (II), Раиса Куркина, Фёдор Сахиров, Буянто Аюшин, Цырен (Цыренжап) Шагжин, Бальжинима Ринчино...
Об актёрах подробней

Описание:
Первые месяцы после Октябрьской революции. Небольшой красноармейский отряд останавливается на хуторе Ахсая, и, тем самым, вносит раздор в его семью. К своей невестке Дынсеме и ее маленькому брату Абидо старый Ахсай относится как к рабам. И совсем иное отношение они встречают со стороны красноармейцев. В их душах впервые пробуждается чувство достоинство. А между тем Гылык, муж Дынсеме, вместе с другим белогвардейцем из банды атамана Семенова, узнав, что отряд красноармейцев собирается вскоре продолжить свой путь, готовят план его истребления.

Источник: DVB
Качество видео: SATRip
Формат видео: AVI

Видео: 640x480 (4:3), 25 fps, XviD ~ 1103 kbps avg, 0.144 bit/pixel
Аудио: 48 kHz, MP3 2.0, 128 kbps

Раздача от:
Общее
Полное имя : Pora.taezhnogo.podsnezhnika.1958.SATRip-745_[New-team]_by_AVP_Studio.avi
Формат : AVI
Формат/Информация : Audio Video Interleave
Размер файла : 757 Мбайт
Продолжительность : 1 ч. 25 м.
Общий поток : 1240 Кбит/сек
Программа кодирования : VirtualDubMod 1.5.10.3 | www.virtualdub-fr.org || (build 2550/release)
Библиотека кодирования : VirtualDubMod build 2550/release

Видео
Идентификатор : 0
Формат : MPEG-4 Visual
Профиль формата : Advanced Simple@L5
Параметр BVOP формата : 1
Параметр QPel формата : Нет
Параметр GMC формата : Без точки перехода
Параметр матрицы формата : Выборочная
Идентификатор кодека : XVID
Идентификатор кодека/Подсказка : XviD
Продолжительность : 1 ч. 25 м.
Битрейт : 1103 Кбит/сек
Ширина : 640 пикселей
Высота : 480 пикселей
Соотношение сторон : 4:3
Частота кадров : 25,000 кадров/сек
Цветовое пространство : YUV
Субдискретизация насыщенности : 4:2:0
Битовая глубина : 8 бит
Тип развёртки : Прогрессивная
Метод сжатия : С потерями
Бит/(Пиксели*Кадры) : 0.144
Размер потока : 673 Мбайт (89%)
Библиотека кодирования : XviD 73

Аудио
Идентификатор : 1
Формат : MPEG Audio
Версия формата : Version 1
Профиль формата : Layer 3
Идентификатор кодека : 55
Идентификатор кодека/Подсказка : MP3
Продолжительность : 1 ч. 25 м.
Вид битрейта : Постоянный
Битрейт : 128 Кбит/сек
Каналы : 2 канала
Частота : 48,0 КГц
Метод сжатия : С потерями
Размер потока : 78,1 Мбайт (10%)
Выравнивание : Соединение по промежуткам
Продолжительность промежутка : 40 мс. (1,00 видеокадр)
Время предзагрузки промежутка : 504 мс.
Библиотека кодирования : LAME3.99r
Настройки программы : -m s -V 4 -q 2 -lowpass 17 -b 128
pb.wtf



Скачать Пора таежного подснежника через торрент http://i056.radikal.ru/1710/41/5643a606337d.png Скачать фильм Пора таежного подснежника через торрент бесплантно в хорошем качестве Описание:Первые месяцы после Октябрьской революции. Небольшой красноармейский отряд останавливается на хуторе Ахсая, и, тем самым, вносит ... 5 10 1
Info! Золотая раздача, скачанное не засчитывается.
Торрент: Зарегистрирован [2017-10-04 07:27] · скачан: 18 раз
Статус: √ проверено
Размер: 757 MB
Как cкачать? Как скачать Пора таежного подснежника через торрент | qTorrent

% Раздел Тема Автор DL S | L
Кино СССР [ 1.09 GB ] Пора таежного подснежника [1958 СССР SATRip-AVC от AVP Studio] AVP Studio Скачать
1 | 0
Кино СССР [ 1.09 GB ] Пора таежного подснежника [1958 СССР SATRip от AVP Studio] AVP Studio Скачать
1 | 0


>> Регистрируемся здесь <<






Отзывы и комментарии о схеме читаем и пишем здесь: ---> Отзывы и комментарии о схеме

Новые благодарочки в телеграм довольных пользователей:
скриншот   скриншот   скриншот   скриншот   скриншот
    Дорогой пользователь! Огромная просьба, поблагодарите релизера, оцените раздачу и оставьте свои комментарий, если Вы скачали Пора таежного подснежника через торрент бесплатно! Внесите свою лепту в развитие PiratBit!
    Комментировать посты могут только пользователи прошедшие не сложную регистрацию
    Показать сообщения:    

    Пора таежного подснежника через торрент
    Скачать бесплатно Пора таежного подснежника
    Пора таежного подснежника скачать торрент
    Пора таежного подснежника смотреть онлайн
    Cкачать фильм Пора таежного подснежника бесплатно
    Пора таежного подснежника скачать торрент в хорошем качестве
    Пора таежного подснежника смотреть онлайн бесплатно в хорошем качестве


    Вы не можете начинать темы
    Вы не можете отвечать на сообщения
    Вы не можете редактировать свои сообщения
    Вы не можете удалять свои сообщения
    Вы не можете голосовать в опросах
    Вы не можете прикреплять файлы к сообщениям
    Вы можете скачивать файлы